img image001 image001 image001 image001 image001 image001 image001 image001 image001 image001 image001 image001 image001 image001 image001 image001

Planets Sun Sun Sun
Статистика раздачи
Автор: Снежана | Размер: 744.76 МБ | Добавлен: 26 июн 2018
Раздают: 11    Качают: 3
Скачать торрент
Скачать торрент
Описание торрента

СообщениеДобавлено: 26 июн 2018 

Страна: СССР
Производство: Мосфильм
Жанр: драма, мелодрама, биография, история
Год выпуска: 1960
Продолжительность: 01:12:51
Перевод: Не требуется
Cубтитры: нет
Оригинальная аудиодорожка: русский
Режиссер: Евгений Андриканис
В ролях:
Олег Стриженов, Иева Мурниеце, Валентин Зубков, Геннадий Юдин, Николай Свободин, Виктор Кулаков, Георгий Черноволенко, Александр Кутепов, Фёдор Никитин, Андрей Файт, Иван Кузнецов, Николай Хрящиков...
Об актёрах подробней
Описание:
По одноименному произведению К. Г. Паустовского.
Однажды прекрасной белой ночью молодой художник Алексей Тихонов (Валентин Зубков) встретил в Петергофе девушку. И потом не мог забыть эту мимолётную встречу. А позже случайно в кабинете академика Щедрина (Геннадий Юдин) он увидел портрет женщины, удивительно похожей на его незнакомку. Академик рассказал ему историю этой женщины - историю трагическую и красивую...





Источник: DVD5 R5
Качество видео: DVDRip
Формат видео: AVI
Видео: 688х512 (4:3), 25 fps, XviD ~ 1227 kbps avg, 0.139 bit/pixel
Аудио: 48 kHz, Dolby Digital AC3 2.0, 192 kbps
Раздача от:
Общее
Полное имя : Severnaya.povest.1960.DVDRip_[New-team]_by_AVP_Studio.avi
Формат : AVI
Формат/Информация : Audio Video Interleave
Размер файла : 745 Мбайт
Продолжительность : 1 ч. 12 м.
Общий поток : 1429 Кбит/сек
Программа кодирования : VirtualDubMod 1.5.10.3 | www.virtualdub-fr.org || (build 2550/release)
Библиотека кодирования : VirtualDubMod build 2550/release
Видео
Идентификатор : 0
Формат : MPEG-4 Visual
Профиль формата : Advanced Simple@L5
Настройки формата : BVOP1 / Custom Matrix
Параметр BVOP формата : 1
Параметр QPel формата : Нет
Параметр GMC формата : Без точки перехода
Параметр матрицы формата : Выборочная
Идентификатор кодека : XVID
Идентификатор кодека/Подсказка : XviD
Продолжительность : 1 ч. 12 м.
Битрейт : 1227 Кбит/сек
Ширина : 688 пикселей
Высота : 512 пикселей
Соотношение сторон : 4:3
Частота кадров : 25,000 кадров/сек
Цветовое пространство : YUV
Субдискретизация насыщенности : 4:2:0
Битовая глубина : 8 бит
Тип развёртки : Прогрессивная
Метод сжатия : С потерями
Бит/(Пиксели*Кадры) : 0.139
Размер потока : 640 Мбайт (86%)
Библиотека кодирования : XviD 73
Аудио
Идентификатор : 1
Формат : AC-3
Формат/Информация : Audio Coding 3
Идентификатор кодека : 2000
Продолжительность : 1 ч. 12 м.
Вид битрейта : Постоянный
Битрейт : 192 Кбит/сек
Каналы : 2 канала
Расположение каналов : Front: L R
Частота : 48,0 КГц
Частота кадров : 31,250 кадров/сек (1536 SPF)
Битовая глубина : 16 бит
Метод сжатия : С потерями
Размер потока : 100 Мбайт (13%)
Выравнивание : Разделение по промежуткам
Продолжительность промежутка : 40 мс. (1,00 видеокадр)
Время предзагрузки промежутка : 500 мс





   Похожие торренты   Торрент   Размер 
В этой теме нет новых непрочитанных сообщений. Северная повесть (1960) DVDRip-AVC от New-Team

16 | 1

744.59 МБ

В этой теме нет новых непрочитанных сообщений. Повесть пламенных лет (1960) DVDRip-AVC

14 | 6

1.97 ГБ

В этой теме нет новых непрочитанных сообщений. Повесть о молодожёнах (1959) DVDRip-AVC от New-Team

15 | 0

1.09 ГБ

В этой теме нет новых непрочитанных сообщений. Повесть о молодожёнах (1959) DVDRip от New-Team

3 | 2

1.09 ГБ

В этой теме нет новых непрочитанных сообщений. Повесть о молодожёнах (1959) DVDRip от New-Team

10 | 0

745.11 МБ

В этой теме нет новых непрочитанных сообщений. Повесть о первой любви (1957) DVDRip-AVC от New-Team

2 | 0

1.09 ГБ

В этой теме нет новых непрочитанных сообщений. Повесть о первой любви (1957) DVDRip от New-Team

0 | 0

1.09 ГБ




Вы не можете начинать темы
Вы не можете отвечать на сообщения
Вы не можете редактировать свои сообщения
Вы не можете удалять свои сообщения
Вы не можете добавлять вложения

Перейти:  
 Вход
ppkBB3cker v.2 © 2008-2014 @ PPK
[ Time : 0.027s | 16 Queries | GZIP : Off ]

cron