img image001 image001 image001 image001 image001 image001 image001 image001 image001 image001 image001 image001 image001 image001 image001 image001

Planets Sun Sun Sun
Статистика раздачи
Автор: Снежана | Размер: 8.58 ГБ | Добавлен: 26 июн 2018
Раздают: 11    Качают: 1
Скачать торрент
Скачать торрент
Описание торрента

СообщениеДобавлено: 26 июн 2018 

Информация о фильме
Название: Тени забытых предков
Оригинальное название: Тiнi забутих предкiв
Год выпуска: 1964
Жанр: драма, мелодрама, музыка
Режиссер: Сергей Параджанов
В ролях: Иван Миколайчук (Иван Палийчук), Лариса Кадочникова (Маричка Гутенюк), Татьяна Бестаева (Палагна), Спартак Багашвили (Юрко Мальфара), Николай Гринько (Батаг), Леонид Енгибаров (Мико), Нина Алисова (Палийчук, мать Ивана), Александр Гай (Петро Палийчук), Неонила Гнеповская (Гутенюк), Александр Райданов (Онуфрий Гутенюк), Игорь Дзюра (Иван в детстве), Валентина Глинько (Маричка в детстве)
О фильме: Десятки лет враждовали два гуцульских рода - Палийчуки и Гутенюки. Но случилось так, что Иван Палийчук полюбил красавицу из вражеского рода - Маричку, дочь убийцы своего отца, которой суждено было прожить короткую, но счастливую жизнь. Не мог без нее быть счастливым Иванко. Но он жил дальше. Женился. Был любимым. Детей не было. Хозяйничал. И искал смерти, которая отняла у него любимую...

Страна: СССР
Студия: Киностудия им. А. Довженко
Продолжительность: 01:35:36
Перевод: Профессиональный (двухголосый, закадровый) R5
Файл
Качество: BDRip 720p
Источник: Shadows.Of.Forgotten.Ancestors.1964.1080p.JPN.Blu-Ray.AVC.LPCM.5.1-Anonymous
Формат: Matroska
Видео: 960x720 at 23.976 fps, x264, ~11500 kbps avg
Аудио#1: Russian: 48 kHz, AC3, 3/2 (L,C,R,l,r) + LFE ch, ~448 kbps avg |Двухголосый закадровый, R5|
Аудио#2: Ukrainian: 48 kHz, AC3, 3/2 (L,C,R,l,r) + LFE ch, ~640 kbps avg
Субтитры: Russian, Ukrainian, English
***Сохранены оригинальные главы как на Blu-ray.
***Релиз: ylnian.
Во время съемок в Карпатах Сергей Параджанов и оператор Юрий Ильенко ужасно конфликтовали. Во время очередной ссоры Ильенко бросил режиссеру: «Завтра в шесть утра ты умрешь. Я вызываю тебя на дуэль. Стреляться будем с шести шагов». «Стреляться будем с гуцульских пистолей», - ответил Параджанов. Оружие взяли у одного из местных. Ильенко сам сделал картечь из чая и листов режиссерского сценария. На дуэль пришли с секундантами: Параджанов со своим ассистентом, Ильенко - с женой Ларисой Кадочниковой и директором киностудии. Встречу назначили на старом мосту над Черемошем. Только Ильенко ступил на него, как вода снесла часть балок, а самого оператора пришлось вытаскивать из воды. Дуэль сорвалась.
Общее
Уникальный идентификатор : 336081819073550502780707657459746731547 (0xFCD701005CEB532ACD3E1795374BF61B)
Полное имя : Тiнi.забутих.предкiв.1965.BDRip.720p-ylnian.mkv
Формат : Matroska
Версия формата : Version 4 / Version 2
Размер файла : 8,58 Гбайт
Продолжительность : 1 ч. 35 м.
Общий поток : 12,9 Мбит/сек
Название фильма : Тiнi.забутих.предкiв.1965.BDRip.720p-ylnian
Дата кодирования : UTC 2018-06-06 10:59:37
Программа кодирования : mkvmerge v23.0.0 ('The Bride Said No') 64-bit
Библиотека кодирования : libebml v1.3.6 + libmatroska v1.4.9
Видео
Идентификатор : 1
Формат : AVC
Формат/Информация : Advanced Video Codec
Профиль формата : High@L4.1
Параметр CABAC формата : Да
Параметр ReFrames формата : 12 кадров
Идентификатор кодека : V_MPEG4/ISO/AVC
Продолжительность : 1 ч. 35 м.
Битрейт : 11,5 Мбит/сек
Ширина : 960 пикселей
Высота : 720 пикселей
Соотношение сторон : 4:3
Режим частоты кадров : Постоянный
Частота кадров : 23,976 кадра/сек
Цветовое пространство : YUV
Субдискретизация насыщенности : 4:2:0
Битовая глубина : 8 бит
Тип развёртки : Прогрессивная
Бит/(Пиксели*Кадры) : 0.695
Размер потока : 7,69 Гбайт (90%)
Заголовок : Тiнi.забутих.предкiв.1965.BDRip.720p-ylnian
Библиотека кодирования : x264 core 155 r2901 7d0ff22
Настройки программы : cabac=1 / ref=12 / deblock=1:-3:-3 / analyse=0x3:0x133 / me=umh / subme=11 / psy=1 / psy_rd=1.05:0.00 / mixed_ref=1 / me_range=64 / chroma_me=1 / trellis=2 / 8x8dct=1 / cqm=0 / deadzone=21,11 / fast_pskip=0 / chroma_qp_offset=-4 / threads=12 / lookahead_threads=2 / sliced_threads=0 / nr=0 / decimate=1 / interlaced=0 / bluray_compat=0 / constrained_intra=0 / bframes=8 / b_pyramid=2 / b_adapt=2 / b_bias=0 / direct=2 / weightb=1 / open_gop=0 / weightp=2 / keyint=250 / keyint_min=23 / scenecut=40 / intra_refresh=0 / rc_lookahead=160 / rc=crf / mbtree=0 / crf=15.1 / qcomp=0.60 / qpmin=0 / qpmax=69 / qpstep=4 / vbv_maxrate=62500 / vbv_bufsize=78125 / crf_max=0.0 / nal_hrd=none / filler=0 / ip_ratio=1.40 / pb_ratio=1.30 / aq=2:0.80
Язык : Ukrainian
Default : Да
Forced : Да
Аудио #1
Идентификатор : 2
Формат : AC-3
Формат/Информация : Audio Coding 3
Расширение режима : CM (complete main)
Параметр Endianness формата : Big
Идентификатор кодека : A_AC3
Продолжительность : 1 ч. 35 м.
Вид битрейта : Постоянный
Битрейт : 448 Кбит/сек
Каналы : 6 каналов
Расположение каналов : Front: L C R, Side: L R, LFE
Частота : 48,0 КГц
Битовая глубина : 16 бит
Метод сжатия : С потерями
Размер потока : 306 Мбайт (3%)
Заголовок : DVO (АС3 5.1 448 kbps)
Язык : Russian
Default : Да
Forced : Да
Аудио #2
Идентификатор : 3
Формат : AC-3
Формат/Информация : Audio Coding 3
Расширение режима : CM (complete main)
Параметр Endianness формата : Big
Идентификатор кодека : A_AC3
Продолжительность : 1 ч. 35 м.
Вид битрейта : Постоянный
Битрейт : 640 Кбит/сек
Каналы : 6 каналов
Расположение каналов : Front: L C R, Side: L R, LFE
Частота : 48,0 КГц
Битовая глубина : 16 бит
Метод сжатия : С потерями
Размер потока : 438 Мбайт (5%)
Заголовок : АС3 5.1 640 kbps
Язык : Ukrainian
Default : Нет
Forced : Нет
Текст #1
Идентификатор : 4
Формат : UTF-8
Идентификатор кодека : S_TEXT/UTF8
Идентификатор кодека/Информация : UTF-8 Plain Text
Язык : Russian
Default : Нет
Forced : Нет
Текст #2
Идентификатор : 5
Формат : UTF-8
Идентификатор кодека : S_TEXT/UTF8
Идентификатор кодека/Информация : UTF-8 Plain Text
Язык : Ukrainian
Default : Нет
Forced : Нет
Текст #3
Идентификатор : 6
Формат : UTF-8
Идентификатор кодека : S_TEXT/UTF8
Идентификатор кодека/Информация : UTF-8 Plain Text
Язык : English
Default : Нет
Forced : Нет
Текст #4
Идентификатор : 7
Формат : UTF-8
Идентификатор кодека : S_TEXT/UTF8
Идентификатор кодека/Информация : UTF-8 Plain Text
Язык : German
Default : Нет
Forced : Нет
Текст #5
Идентификатор : 8
Формат : UTF-8
Идентификатор кодека : S_TEXT/UTF8
Идентификатор кодека/Информация : UTF-8 Plain Text
Язык : French
Default : Нет
Forced : Нет
Текст #6
Идентификатор : 9
Формат : UTF-8
Идентификатор кодека : S_TEXT/UTF8
Идентификатор кодека/Информация : UTF-8 Plain Text
Язык : Spanish
Default : Нет
Forced : Нет
Текст #7
Идентификатор : 10
Формат : PGS
Режим смешивания : zlib
Идентификатор кодека : S_HDMV/PGS
Идентификатор кодека/Информация : The same subtitle format used on BDs/HD-DVDs
Язык : Japanese
Default : Нет
Forced : Нет
Меню
00:00:00.000 : uk:00:00:00.000
00:08:40.978 : uk:00:08:40.978
00:16:38.831 : uk:00:16:38.831
00:25:16.473 : uk:00:25:16.473
00:30:58.982 : uk:00:30:58.982
00:40:55.452 : uk:00:40:55.452
00:47:10.452 : uk:00:47:10.452
00:54:13.250 : uk:00:54:13.250
01:05:47.318 : uk:01:05:47.318
01:12:31.263 : uk:01:12:31.263
01:19:34.644 : uk:01:19:34.644
01:24:57.842 : uk:01:24:57.842



   Похожие торренты   Торрент   Размер 
В этой теме нет новых непрочитанных сообщений. Тени забытых предков / Тiнi забутих предкiв (1964) DVD9 | P

25 | 5

7.8 ГБ

В этой теме нет новых непрочитанных сообщений. Тени незабытых предков / Тiнi незабутих предкiв (2013) WEB-DL 720p | D

238 | 24

3.51 ГБ

В этой теме нет новых непрочитанных сообщений. Тени незабытых предков / Тiнi незабутих предкiв (2013) WEBRip 720p

633 | 22

2.75 ГБ

В этой теме нет новых непрочитанных сообщений. Тени незабытых предков / Тiнi незабутих предкiв (2013) WEB-DLRip | D

251 | 24

1.45 ГБ

В этой теме нет новых непрочитанных сообщений. Тени незабытых предков / Тiнi незабутих предкiв (2013) WebRip от AleksSin | D

731 | 43

1.45 ГБ

В этой теме нет новых непрочитанных сообщений. Тени незабытых предков / Тiнi незабутих предкiв (2013) WEBRip от AleksSin | D

229 | 15

745.76 МБ

В этой теме нет новых непрочитанных сообщений. Замужняя женщина / Une femme mariée: Suite de fragments d'un film tourné en 1964 (1964) BDRip 720p | A

0 | 0

6.68 ГБ




Вы не можете начинать темы
Вы не можете отвечать на сообщения
Вы не можете редактировать свои сообщения
Вы не можете удалять свои сообщения
Вы не можете добавлять вложения

Перейти:  
 Вход
ppkBB3cker v.2 © 2008-2014 @ PPK
[ Time : 0.023s | 15 Queries | GZIP : Off ]

cron