img image001 image001 image001 image001 image001 image001 image001 image001 image001 image001 image001 image001 image001 image001 image001 image001

Planets Sun Sun Sun
Статистика раздачи
Автор: Снежана | Размер: 1.09 ГБ | Добавлен: 26 июн 2018
Раздают: 5    Качают: 0
Скачать торрент
Скачать торрент
Описание торрента

СообщениеДобавлено: 26 июн 2018 

Страна: СССР
Производство: Мосфильм
Жанр: драма
Год выпуска: 1960
Продолжительность: 01:15:28
Перевод: Не требуется
Cубтитры: нет
Оригинальная аудиодорожка: русский
Режиссер: Владимир Скуйбин
В ролях:
Владимир Васильев (Х), Нина Меньшикова, Антонина Павлычева, Клавдия Половикова, Владимир Покровский, Пётр Савин, Иван Рыжов, Валерий Коротков, Саша Крылов (III), Станислав Чекан, Елена Максимова, Вера Бурлакова...
Об актёрах подробней
Описание:
Ученик Гумнищенской сельской школы Родька Гуляев выкапывает на берегу реки древнюю потемневшую икону, а его бабка Авдотья распускает слух, что эта икона - чудотворная, а ее внук Родька - святой. Бабка и мать стали силой "обращать его в христианскую веру". Мальчика заставляли носить крест, молиться. Родька протестовал, стыдился товарищей. Доведенный до отчаяния, он решил уничтожить икону, но был застигнут "на месте преступления" бабкой. Беспощадно избитый, не видя выхода, он бросился в реку, но учительнице Прасковье Петровне удалось его спасти.





Исходник: DVB
Качество видео: SATRip
Формат видео: AVI
Видео: 688x512 (4:3), 25,000 кадров/сек, XviD ~ 1865 kbps avg, 0.212 bit/pixel
Аудио: 48 kHz, Dolby Digital AC3 2.0, 192 kbps
Раздача от:
Общее
Полное имя : Chudotvornaya.1960.SATRip_[New-team]_by_AVP_Studio.avi
Формат : AVI
Формат/Информация : Audio Video Interleave
Размер файла : 1,09 Гбайт
Продолжительность : 1 ч. 15 м.
Общий поток : 2066 Кбит/сек
Программа кодирования : VirtualDubMod 1.5.10.3 | www.virtualdub-fr.org || (build 2550/release)
Библиотека кодирования : VirtualDubMod build 2550/release
Видео
Идентификатор : 0
Формат : MPEG-4 Visual
Профиль формата : Advanced Simple@L5
Настройки формата : BVOP1 / Custom Matrix
Параметр BVOP формата : 1
Параметр QPel формата : Нет
Параметр GMC формата : Без точки перехода
Параметр матрицы формата : Выборочная
Идентификатор кодека : XVID
Идентификатор кодека/Подсказка : XviD
Продолжительность : 1 ч. 15 м.
Битрейт : 1865 Кбит/сек
Ширина : 688 пикселей
Высота : 512 пикселей
Соотношение сторон : 4:3
Частота кадров : 25,000 кадров/сек
Цветовое пространство : YUV
Субдискретизация насыщенности : 4:2:0
Битовая глубина : 8 бит
Тип развёртки : Прогрессивная
Метод сжатия : С потерями
Бит/(Пиксели*Кадры) : 0.212
Размер потока : 1006 Мбайт (90%)
Библиотека кодирования : XviD 73
Аудио
Идентификатор : 1
Формат : AC-3
Формат/Информация : Audio Coding 3
Идентификатор кодека : 2000
Продолжительность : 1 ч. 15 м.
Вид битрейта : Постоянный
Битрейт : 192 Кбит/сек
Каналы : 2 канала
Расположение каналов : Front: L R
Частота : 48,0 КГц
Частота кадров : 31,250 кадров/сек (1536 SPF)
Битовая глубина : 16 бит
Метод сжатия : С потерями
Размер потока : 104 Мбайт (9%)
Выравнивание : Разделение по промежуткам
Продолжительность промежутка : 40 мс. (1,00 видеокадр)
Время предзагрузки промежутка : 500 мс





   Похожие торренты   Торрент   Размер 
В этой теме нет новых непрочитанных сообщений. Чудотворная (1960) SATRip-AVC от New-Team

8 | 1

1.09 ГБ

В этой теме нет новых непрочитанных сообщений. Чудотворная (1960) SATRip от Pshichko66

29 | 4

1.27 ГБ

В этой теме нет новых непрочитанных сообщений. Возвращение (1960) SATRip от New-Team

6 | 4

1.09 ГБ

В этой теме нет новых непрочитанных сообщений. Возвращение (1960) SATRip-AVC от New-Team

11 | 1

1.09 ГБ

В этой теме нет новых непрочитанных сообщений. Тишина (1960) SATRip-AVC от New-Team

20 | 1

1.09 ГБ

В этой теме нет новых непрочитанных сообщений. Тишина (1960) SATRip от New-Team

22 | 2

1.09 ГБ

В этой теме нет новых непрочитанных сообщений. Хлеб и розы (1960) SATRip от New-Team

17 | 0

1.09 ГБ




Вы не можете начинать темы
Вы не можете отвечать на сообщения
Вы не можете редактировать свои сообщения
Вы не можете удалять свои сообщения
Вы не можете добавлять вложения

Перейти:  
 Вход
ppkBB3cker v.2 © 2008-2014 @ PPK
[ Time : 0.026s | 18 Queries | GZIP : Off ]

cron