img image001 image001 image001 image001 image001 image001 image001 image001 image001 image001 image001 image001 image001 image001 image001 image001

Planets Sun Sun Sun
Статистика раздачи
Автор: Снежана | Размер: 2.3 ГБ | Добавлен: 26 июн 2018
Раздают: 826    Качают: 36
Скачать торрент
Скачать торрент
Описание торрента

СообщениеДобавлено: 26 июн 2018 

Zомбоящик
Страна: Россия
Производство: Comedy Club Production, ТНТ
Год выпуска: 2018
Жанр: комедия
Продолжительность: 00:59:20
Режиссер: Константин Смирнов
В ролях: Гарик Харламов, Гарик Мартиросян, Тимур Батрутдинов, Александр Ревва, Павел Воля, Екатерина Варнава, Андрей Скороход, Роман Юнусов
Описание: Во времена Шекспира весь мир был театром, в наши же дни его захватил зомбоящик. 30 звёзд ТНТ. Все жанры: драма, комедия, боевик, триллер, научная фантастика, байопик, эротика и экспериментальное кино. От бессмысленного и беспощадного стеба не скроется никто: ни футболисты, ни геи, ни чиновники, ни священники, ни расисты, ни онанисты! Герои «Zомбоящика» интригуют, дразнят, издеваются и смеются вместе со зрителями, доказывая, что вся наша жизнь и есть «Zомбоящик».

Перевод: не требуется (оригинал) | iTunes
Субтитры: нет

Качество: WEB-DL 1080р
Формат: МКV
Видео кодек: AVC
Аудио кодек: АС3
Видео: 1920x1080 (16:9), 24.000 fps, MPEG-4 AVC ~5 046 kbps avg
Аудио: 48.0 kHz, AC3 Dolby Digital, 3/2 (L,C,R,l,r) + LFE ch, ~384 kbps
Дата премьеры (РФ): 25 января 2018, «Каропрокат»
General
Unique ID : 208920968435508041190011683488670882863 (0x9D2CB70479974D2BB65A85D4C7CF1C2F)
Complete name : Zомбоящик.2O18.O.WeB-DL.1O8Op.mkv
Format : Matroska
Format version : Version 2
File size : 2.30 GiB
Duration : 59mn 19s
Overall bit rate : 5 540 Kbps
Encoded date : UTC 2018-06-06 19:10:02
Writing application : mkvmerge v8.3.0 ('Over the Horizon') 64bit
Writing library : libebml v1.3.1 + libmatroska v1.4.2
DURATION : 00:59:19.936000000
NUMBER_OF_FRAMES : 111248
NUMBER_OF_BYTES : 170876928
_STATISTICS_WRITING_APP : mkvmerge v8.3.0 ('Over the Horizon') 64bit
_STATISTICS_WRITING_DATE_UTC : 2018-06-06 19:10:02
_STATISTICS_TAGS : BPS DURATION NUMBER_OF_FRAMES NUMBER_OF_BYTES
Video
ID : 1
Format : AVC
Format/Info : Advanced Video Codec
Format profile : High@L4
Format settings, CABAC : Yes
Format settings, ReFrames : 4 frames
Codec ID : V_MPEG4/ISO/AVC
Duration : 59mn 19s
Bit rate : 5 046 Kbps
Width : 1 920 pixels
Height : 1 080 pixels
Display aspect ratio : 16:9
Frame rate mode : Constant
Frame rate : 25.000 fps
Color space : YUV
Chroma subsampling : 4:2:0
Bit depth : 8 bits
Scan type : Progressive
Bits/(Pixel*Frame) : 0.097
Stream size : 2.09 GiB (91%)
Language : English
Default : Yes
Forced : No
Color range : Limited
Color primaries : BT.709
Transfer characteristics : BT.709
Matrix coefficients : BT.709
Audio
ID : 2
Format : AC-3
Format/Info : Audio Coding 3
Mode extension : CM (complete main)
Format settings, Endianness : Big
Codec ID : A_AC3
Duration : 59mn 19s
Bit rate mode : Constant
Bit rate : 384 Kbps
Channel(s) : 6 channels
Channel positions : Front: L C R, Side: L R, LFE
Sampling rate : 48.0 KHz
Compression mode : Lossy
Stream size : 163 MiB (7%)
Language : Russian
Default : Yes
Forced : No



   Похожие торренты   Торрент   Размер 
В этой теме нет новых непрочитанных сообщений. Zомбоящик (2018) WEB-DLRip | iTunes

568 | 26

1.37 ГБ

В этой теме нет новых непрочитанных сообщений. Zомбоящик (2018) WEB-DLRip от GeneralFilm | iTunes

107 | 1

743.23 МБ

В этой теме нет новых непрочитанных сообщений. Первому игроку приготовиться / Ready Player One (2018) BDRip 1080р | D, P | iTunes

38 | 12

10.4 ГБ

В этой теме нет новых непрочитанных сообщений. NBA 2018-2019 / RS / 09.11.2018 / Boston Celtics @ Utah Jazz / Виасат HD [Баскетбол, 09.11.2018, IPTV (1080р)]

0 | 0

3.2 ГБ

В этой теме нет новых непрочитанных сообщений. Чемпионат Мира 2018 / 2018 FIFA World Cup / Финал / Обзор / BBC One HD [Футбол, 15.07.2018, HDTV (1080р)]

3 | 0

1.98 ГБ

В этой теме нет новых непрочитанных сообщений. NBA 2018 / 04.09.2018 / The Jump - Шоу В прыжке / RU/EN, Виасат Спорт HD [Баскетбол, 04.09.2018, HDTV (1080р)]

3 | 0

1.41 ГБ

В этой теме нет новых непрочитанных сообщений. KHL 2018-2019 / Динамо Минск - Спартак [Хоккей, 12.09.2018, HDTV (1080р)]

0 | 3

11.67 ГБ




Вы не можете начинать темы
Вы не можете отвечать на сообщения
Вы не можете редактировать свои сообщения
Вы не можете удалять свои сообщения
Вы не можете добавлять вложения

Перейти:  
 Вход
ppkBB3cker v.2 © 2008-2014 @ PPK
[ Time : 0.439s | 18 Queries | GZIP : Off ]

cron