img image001 image001 image001 image001 image001 image001 image001 image001 image001 image001 image001 image001 image001 image001 image001 image001

Planets Sun Sun Sun
Статистика раздачи
Автор: Снежана | Размер: 1.65 ГБ | Добавлен: 26 июн 2018
Раздают: 47    Качают: 5
Скачать торрент
Скачать торрент
Описание торрента

СообщениеДобавлено: 26 июн 2018 

Особенности национальной охоты в зимний период

Страна: Россия
Жанр: Комедия
Год выпуска: 2000
Продолжительность: 01:13:04
Перевод: Не требуется
Режиссер: Александр Рогожкин
В ролях: Виктор Бычков, Алексей Булдаков, Семён Стругачёв, Сергей Гусинский, Андрей Федорцов, Ирина Основина, Юрий Кузнецов, Андрей Зибров, Андрей Краско, Михаил Пореченков.
Описание: В давние годы в провинции Фуцзян жил один человек по имени Ху Чжоу, и был он величайшим охотником. Не было ему равных во всей Поднебесной. Любого зверя или птицу мог изловить. Передавал он свои знания людям, но никого не мог назвать своим учеником... И стало ему скучно. И отправился он бродить по свету. И нигде, куда бы он ни приходил, не мог встретить того, кто мог бы сравниться с ним в мастерстве и знании дела, пока не достиг края Земли, где всё пространство покрывали снега и зима длилась почти год. Жители этой Ледяной страны охотились и ловили рыбу такими странными способами, что пошатнули представления и взгляды Ху Чжоу на искусство охоты...
...А на 13-м кордоне у Кузьмича все было тихо и спокойно. Пока в очередной раз не пожаловали к нему очередные гости. С очередной проверкой...

Кодек: х264
Качество: DVDRip-AVC
Видео: MPEG-4 AVC, 712х436@759x436, 25 fps, 2700 Кбит/с
Аудио: АС3, 6 сh, 384 Кбит/с, АС3, 2 сh, 192 Кбит/с
Субтитры: Нет
Главы: Есть

x264 [info]: frame I:613 Avg QP:17.32 size: 79503
x264 [info]: frame P:25497 Avg QP:19.92 size: 31350
x264 [info]: frame B:82115 Avg QP:21.44 size: 7480
Общее
Уникальный идентификатор : 239563300386358731946868021914491186339 (0xB43A36A0021D2FF58CC1A2CE46E86CA3)
Полное имя : I:Наше современное киноОсобенности национальной охоты в зимний период 2000_DVDRip-AVC_KORSAR.mkv
Формат : Matroska
Версия формата : Version 2
Размер файла : 1,65 Гбайт
Продолжительность : 1 ч. 12 м.
Общий поток : 3280 Кбит/сек
Название фильма : mister.hats
Дата кодирования : UTC 2018-06-08 00:33:27
Программа кодирования : mkvmerge v5.8.0 ('No Sleep / Pillow') built on Sep 2 2012 15:37:04
Библиотека кодирования : libebml v1.2.3 + libmatroska v1.3.0
Видео
Идентификатор : 1
Формат : AVC
Формат/Информация : Advanced Video Codec
Профиль формата : High@L4.1
Настройки формата : CABAC / 14 Ref Frames
Параметр CABAC формата : Да
Параметр RefFrames формата : 14 кадров
Идентификатор кодека : V_MPEG4/ISO/AVC
Продолжительность : 1 ч. 12 м.
Битрейт : 2700 Кбит/сек
Ширина : 712 пикселей
Высота : 436 пикселей
Соотношение сторон : 16:9
Соотношение сторон в оригинале : 16:9
Режим частоты кадров : Постоянный
Частота кадров : 25,000 кадров/сек
Цветовое пространство : YUV
Субдискретизация насыщенности : 4:2:0
Битовая глубина : 8 бит
Тип развёртки : Прогрессивная
Бит/(Пиксели*Кадры) : 0.348
Размер потока : 1,33 Гбайт (80%)
Библиотека кодирования : x264 core 152 r2851kMod ba24899
Настройки программы : cabac=1 / ref=14 / deblock=1:-2:-1 / analyse=0x3:0x133 / me=umh / subme=11 / psy=1 / fade_compensate=0.00 / psy_rd=1.05:0.10 / mixed_ref=1 / me_range=48 / chroma_me=1 / trellis=2 / 8x8dct=1 / cqm=0 / deadzone=21,11 / fast_pskip=0 / chroma_qp_offset=-3 / threads=12 / lookahead_threads=3 / sliced_threads=0 / nr=0 / decimate=0 / interlaced=0 / bluray_compat=0 / constrained_intra=0 / bframes=14 / b_pyramid=2 / b_adapt=2 / b_bias=0 / direct=3 / weightb=1 / open_gop=0 / weightp=2 / keyint=250 / keyint_min=25 / scenecut=40 / intra_refresh=0 / rc_lookahead=40 / rc=2pass / mbtree=0 / bitrate=2700 / ratetol=1.0 / qcomp=0.60 / qpmin=0 / qpmax=39 / qpstep=4 / cplxblur=20.0 / qblur=0.5 / vbv_maxrate=50000 / vbv_bufsize=62500 / nal_hrd=none / filler=0 / ip_ratio=1.25 / pb_ratio=1.30 / aq=1:1.00
Язык : English
Default : Да
Forced : Нет
Цветовой диапазон : Limited
Основные цвета : BT.601 PAL
Характеристики трансфера : BT.470 System B, BT.470 System G
Коэффициенты матрицы : BT.470 System B, BT.470 System G
Аудио #1
Идентификатор : 2
Формат : AC-3
Формат/Информация : Audio Coding 3
Параметр Endianness формата : Big
Идентификатор кодека : A_AC3
Продолжительность : 1 ч. 12 м.
Вид битрейта : Постоянный
Битрейт : 384 Кбит/сек
Каналы : 6 каналов
Расположение каналов : Front: L C R, Side: L R, LFE
Частота : 48,0 КГц
Частота кадров : 31,250 кадров/сек (1536 SPF)
Битовая глубина : 16 бит
Метод сжатия : С потерями
Размер потока : 198 Мбайт (12%)
Язык : Russian
Default : Да
Forced : Нет
Аудио #2
Идентификатор : 3
Формат : AC-3
Формат/Информация : Audio Coding 3
Параметр Endianness формата : Big
Идентификатор кодека : A_AC3
Продолжительность : 1 ч. 12 м.
Вид битрейта : Постоянный
Битрейт : 192 Кбит/сек
Каналы : 3 канала
Расположение каналов : Front: L R, LFE
Частота : 48,0 КГц
Частота кадров : 31,250 кадров/сек (1536 SPF)
Битовая глубина : 16 бит
Метод сжатия : С потерями
Размер потока : 99,1 Мбайт (6%)
Язык : Russian
Default : Нет
Forced : Нет
Меню
00:00:00.000 : en:Chapter 1
00:02:30.800 : en:Chapter 2
00:14:54.920 : en:Chapter 3
00:23:50.000 : en:Chapter 4
00:29:07.200 : en:Chapter 5
00:35:58.000 : en:Chapter 6
00:38:58.960 : en:Chapter 7
00:42:22.800 : en:Chapter 8
00:47:12.440 : en:Chapter 9
00:48:55.400 : en:Chapter 10
00:50:07.160 : en:Chapter 11
00:53:24.240 : en:Chapter 12
00:56:14.280 : en:Chapter 13
00:57:21.880 : en:Chapter 14
00:59:09.520 : en:Chapter 15
01:04:45.960 : en:Chapter 16
01:06:37.760 : en:Chapter 17
01:10:27.080 : en:Chapter 18






   Похожие торренты   Торрент   Размер 
В этой теме нет новых непрочитанных сообщений. Особенности национальной охоты в зимний период (2001) DVDRip от Sanjar & NeoJet | КПК

156 | 18

220.01 МБ

В этой теме нет новых непрочитанных сообщений. Особенности национальной охоты (1995) DVDRip от New-Team

844 | 53

1.46 ГБ

В этой теме нет новых непрочитанных сообщений. Особенности национальной охоты (1995) DVDRip от Sanjar & NeoJet | КПК

116 | 13

279.51 МБ

В этой теме нет новых непрочитанных сообщений. Особенности национальной политики (2003) DVDRip-AVC от KORSAR

20 | 4

2.45 ГБ

В этой теме нет новых непрочитанных сообщений. Особенности национальной политики (2003) DVDRip от Sanjar & NeoJet | КПК

170 | 13

248.82 МБ

В этой теме нет новых непрочитанных сообщений. Особенности национальной рыбалки (1998) DVDRip от Sanjar & NeoJet | КПК

118 | 11

285.03 МБ

В этой теме нет новых непрочитанных сообщений. Особенности национальной подледной ловли, или Отрыв по полной (2007) DVDRip от Sanjar & NeoJet | КПК

157 | 13

226.99 МБ




Вы не можете начинать темы
Вы не можете отвечать на сообщения
Вы не можете редактировать свои сообщения
Вы не можете удалять свои сообщения
Вы не можете добавлять вложения

Перейти:  
 Вход
ppkBB3cker v.2 © 2008-2014 @ PPK
[ Time : 0.016s | 15 Queries | GZIP : Off ]

cron