img image001 image001 image001 image001 image001 image001 image001 image001 image001 image001 image001 image001 image001 image001 image001 image001

Planets Sun Sun Sun
Статистика раздачи
Автор: Снежана | Размер: 1.37 ГБ | Добавлен: 26 июн 2018
Раздают: 20    Качают: 5
Скачать торрент
Скачать торрент
Описание торрента

СообщениеДобавлено: 26 июн 2018 

Информация о фильме
Жанр: Драма
Год выпуска: 1976
Режиссер: Николай Губенко
Актеры: Юозас Будрайтис, Георгий Бурков, Александр Калягин, Алексей Черствов, Бухути Закариадзе, Жанна Болотова, Ролан Быков, Евгений Евстигнеев, Николай Губенко, Наталья Гундарева и др.
Описание:
Один из лучших фильмов советского кино - трагедия беспризорного послевоенного детства. Это рассказ писателя Алексея Бертенева, разыскивающего своих братьев. Всех их в детские годы разметала по жизни война. Один был усыновлён состоятельными и благополучными людьми и сам вырос в состоятельного благополучного архитектора. Другой стал вором-рецидивистом. Сестра, после гибели на фронте отца и самоубийства матери, до четырнадцати лет заботилась о самом младшем в семье ребёнке - о рассказчике. Они вместе голодали и воровали пропитание. Потом она умерла. А Алексею повезло - он попал в подмосковный детский дом, расположенный в старинном имении. И там, в окружении искалеченных войной детей и не менее искалеченных войной педагогов, формировался как личность. Встречаясь с братьями - по существу, чужими людьми - герой всё сильнее ощущает одиночество, а зритель понимает, что именно это одиночество и есть главная трагедия человека и человечества...

Выпущено: СССР
Продолжительность: 01:28:09
Перевод: не требуется
Файл
Контейнер: MKV
Качество видео: WEBRip-AVC
Видео: AVC/H.264, 920x600 (3:2), ~2000 Kbps, 25.00 fps
Аудио: AC3, 48.0 kHz, 2 ch, 224 kbps
General
Unique ID : 55866202941598179686446226407277484762 (0x2A077076C7C2F0585472596435045ADA)
Complete name : D:Podranki_1976_WEBRip_AVC.mkv
Format : Matroska
Format version : Version 4 / Version 2
File size : 1.37 GiB
Duration : 1 h 28 min
Overall bit rate mode : Constant
Overall bit rate : 2 228 kb/s
Encoded date : UTC 2017-12-09 17:50:03
Writing application : Lavf57.71.100
Writing library : Lavf57.71.100
ErrorDetectionType : Per level 1
Video
ID : 1
Format : AVC
Format/Info : Advanced Video Codec
Format profile : Main@L3.1
Format settings, CABAC : Yes
Format settings, ReFrames : 1 frame
Format settings, GOP : M=1, N=25
Codec ID : V_MPEG4/ISO/AVC
Duration : 1 h 28 min
Bit rate mode : Constant
Bit rate : 2 000 kb/s
Width : 920 pixels
Height : 600 pixels
Display aspect ratio : 3:2
Frame rate mode : Constant
Frame rate : 25.000 FPS
Color space : YUV
Chroma subsampling : 4:2:0
Bit depth : 8 bits
Scan type : Progressive
Bits/(Pixel*Frame) : 0.145
Stream size : 1.21 GiB (88%)
Language : English
Default : Yes
Forced : No
DURATION : 01:28:09.560000000
Audio
ID : 2
Format : AC-3
Format/Info : Audio Coding 3
Format settings, Endianness : Big
Codec ID : A_AC3
Duration : 1 h 28 min
Bit rate mode : Constant
Bit rate : 224 kb/s
Channel(s) : 2 channels
Channel positions : Front: L R
Sampling rate : 48.0 kHz
Frame rate : 31.250 FPS (1536 spf)
Bit depth : 16 bits
Compression mode : Lossy
Stream size : 141 MiB (10%)
Service kind : Complete Main
Default : Yes
Forced : No
DURATION : 01:28:09.600000000



   Похожие торренты   Торрент   Размер 
В этой теме нет новых непрочитанных сообщений. Подранки (1976) DVDRip-AVC от KORSAR

6 | 1

1.37 ГБ

В этой теме нет новых непрочитанных сообщений. Пес, кот и... / Pies, kot i... [s01] (1972-1976) WEBRip

17 | 4

1.74 ГБ

В этой теме нет новых непрочитанных сообщений. Сказание о Сиявуше (1976) WEBRip

381 | 33

1.75 ГБ

В этой теме нет новых непрочитанных сообщений. VA - Best Of 1976 (2014) MP3

170 | 35

300.45 МБ

В этой теме нет новых непрочитанных сообщений. Два капитана [01-06 из 06] (1976) DVDRip

600 | 59

4.35 ГБ

В этой теме нет новых непрочитанных сообщений. Буденовка (1976) DVDRip

101 | 3

1.11 ГБ

В этой теме нет новых непрочитанных сообщений. Сын председателя (1976) DVB от AND03AND

5 | 0

1.51 ГБ




Вы не можете начинать темы
Вы не можете отвечать на сообщения
Вы не можете редактировать свои сообщения
Вы не можете удалять свои сообщения
Вы не можете добавлять вложения

Перейти:  
 Вход
ppkBB3cker v.2 © 2008-2014 @ PPK
[ Time : 0.136s | 18 Queries | GZIP : Off ]

cron