img image001 image001 image001 image001 image001 image001 image001 image001 image001 image001 image001 image001 image001 image001 image001 image001

Planets Sun Sun Sun
Статистика раздачи
Автор: Снежана | Размер: 1.48 ГБ | Добавлен: 26 июн 2018
Раздают: 29    Качают: 4
Скачать торрент
Скачать торрент
Описание торрента

СообщениеДобавлено: 26 июн 2018 

Информация о фильме
Название: В сторону от войны
Год выхода: 2009
Жанр: Драма, военный
Режиссер: Алексей Козлов
В ролях: Андрей Зибров, Елена Подкаминская, Алексей Комашко, Валерий Кухарешин, Борис Смолкин, Мария Капустинская, Андрей Обарухин, Игорь Добряков, Андрей Тенетко, Радик Галиуллин, Сергей Малахов, Йохан Ботт, Дмитрий Кочкин, Юрий Орлов, Любовь Макеева, Марьяна Семёнова, Оксана Сурнина, Павел Михайлов, Владимир Заморин
О фильме: Начало Великой Отечественной Войны. Фронтовая агитбригада прибыла на передовую, чтобы поддержать боевой дух солдат. И вдруг сразу после концерта одна из актрис, Маша, встречает здесь человека, которого она любила, и который исчез из ее жизни 5 лет назад. Он — капитан Александр Громов, простой пехотный командир, «пушечное мясо» войны. Несмотря на то, что Маша вышла замуж за народного артиста, за прошедшие годы ее чувства к Александру не угасли. Тем временем из показаний пленного «языка» Громов понимает, что через несколько часов начнется крупное наступление, и начнется оно с атаки на его батальон. Он приказывает агитбригаде срочно уезжать.

Выпущено: Россия, Феникс-фильм
Продолжительность: 01:29:33
Перевод: Не требуется
Файл
Кодек: х264
Качество: DVDRip-AVC
Видео: MPEG-4 AVC, 718x576@1022x576, 25.000 fps, 2170 Кбит/с
Аудио: AC3, 2 ch, 192 Кбит/с
Субтитры: Нет
Релиз от:


Общее
Уникальный идентификатор : 209585695593582358049529787083368972631 (0x9DACBC98C1DBD91EAB8CE7D32AB04157)
Полное имя : В сторону от войны.2009.DVDRip-AVC.KORSAR.mkv
Формат : Matroska
Версия формата : Version 2
Размер файла : 1,48 Гбайт
Продолжительность : 1 ч. 29 м.
Общий поток : 2365 Кбит/сек
Дата кодирования : UTC 2017-07-12 03:26:50
Программа кодирования : mkvmerge v7.8.0 ('River Man') 32bit built on Apr 3 2015 12:11:22
Библиотека кодирования : libebml v1.3.1 + libmatroska v1.4.2
Видео
Идентификатор : 1
Формат : AVC
Формат/Информация : Advanced Video Codec
Профиль формата : High@L4.1
Параметр CABAC формата : Да
Параметр ReFrames формата : 13 кадров
Идентификатор кодека : V_MPEG4/ISO/AVC
Продолжительность : 1 ч. 29 м.
Битрейт : 2170 Кбит/сек
Ширина : 718 пикселей
Высота : 576 пикселей
Соотношение сторон : 16:9
Режим частоты кадров : Постоянный
Частота кадров : 25,000 кадров/сек
Цветовое пространство : YUV
Субдискретизация насыщенности : 4:2:0
Битовая глубина : 8 бит
Тип развёртки : Прогрессивная
Бит/(Пиксели*Кадры) : 0.210
Размер потока : 1,33 Гбайт (90%)
Библиотека кодирования : x264 core 148 r2744kMod b97ae06
Настройки программы : cabac=1 / ref=13 / deblock=1:-2:-2 / analyse=0x3:0x133 / me=umh / subme=10 / psy=1 / fade_compensate=0.00 / psy_rd=1.05:0.10 / mixed_ref=1 / me_range=32 / chroma_me=1 / trellis=2 / 8x8dct=1 / cqm=0 / deadzone=21,11 / fast_pskip=0 / chroma_qp_offset=-3 / threads=6 / lookahead_threads=1 / sliced_threads=0 / nr=0 / decimate=0 / interlaced=0 / bluray_compat=0 / constrained_intra=0 / bframes=8 / b_pyramid=2 / b_adapt=2 / b_bias=0 / direct=3 / weightb=1 / open_gop=0 / weightp=2 / keyint=250 / keyint_min=25 / scenecut=40 / intra_refresh=0 / rc=2pass / mbtree=0 / bitrate=2170 / ratetol=1.0 / qcomp=0.63 / qpmin=0 / qpmax=39 / qpstep=4 / cplxblur=20.0 / qblur=0.5 / ip_ratio=1.15 / pb_ratio=1.30 / aq=1:1.00
Язык : Russian
Default : Да
Forced : Нет
Цветовой диапазон : Limited
Основные цвета : BT.601 PAL
Характеристики трансфера : BT.470 System B, BT.470 System G
Коэффициенты матрицы : BT.601
Аудио
Идентификатор : 2
Формат : AC-3
Формат/Информация : Audio Coding 3
Параметр Endianness формата : Big
Идентификатор кодека : A_AC3
Продолжительность : 1 ч. 29 м.
Вид битрейта : Постоянный
Битрейт : 192 Кбит/сек
Каналы : 2 канала
Расположение каналов : Front: L R
Частота : 48,0 КГц
Частота кадров : 31,250 кадров/сек (1536 spf)
Битовая глубина : 16 бит
Метод сжатия : С потерями
Размер потока : 123 Мбайт (8%)
Язык : Russian
Default : Да
Forced : Нет



   Похожие торренты   Торрент   Размер 
В этой теме нет новых непрочитанных сообщений. Ментовские войны 10 [10x01-14 из 16] (2016) SATRip-AVC от Korsar

0 | 0

7.85 ГБ

В этой теме нет новых непрочитанных сообщений. Ментовские войны 10 [10x01-12 из 16] (2016) SATRip-AVC от Korsar

0 | 0

6.73 ГБ

В этой теме нет новых непрочитанных сообщений. Ментовские войны 10 [10x01-16 из 16] (2016) SATRip-AVC от Korsar

51 | 3

8.97 ГБ

В этой теме нет новых непрочитанных сообщений. Звездные войны: Войны Клонов / Star Wars: The Clone Wars [S01-02] (2008-2009) 8xDVD5 от New-Team | D | Сжатый

21 | 14

34.56 ГБ

В этой теме нет новых непрочитанных сообщений. Меч [01-25 из 25] (2009) SATRip-AVC от Korsar

3 | 5

14.42 ГБ

В этой теме нет новых непрочитанных сообщений. Маша и медведь [01-62] (2009-2017) WEBRip-AVC от Korsar

28 | 6

6 ГБ

В этой теме нет новых непрочитанных сообщений. Шаг в сторону (2003) DVDRip

49 | 6

87.28 МБ




Вы не можете начинать темы
Вы не можете отвечать на сообщения
Вы не можете редактировать свои сообщения
Вы не можете удалять свои сообщения
Вы не можете добавлять вложения

Перейти:  
 Вход
ppkBB3cker v.2 © 2008-2014 @ PPK
[ Time : 0.032s | 15 Queries | GZIP : Off ]

cron