img image001 image001 image001 image001 image001 image001 image001 image001 image001 image001 image001 image001 image001 image001 image001 image001

Planets Sun Sun Sun
Статистика раздачи
Автор: Снежана | Размер: 745.46 МБ | Добавлен: 26 июн 2018
Раздают: 0    Качают: 1
Скачать торрент
Скачать торрент
Описание торрента

СообщениеДобавлено: 26 июн 2018 

Страна: СССР
Производство: Ленфильм
Жанр: драма
Год выпуска: 1961
Продолжительность: 01:16:37
Перевод: Не требуется
Cубтитры: нет
Оригинальная аудиодорожка: русский
Режиссер: Геннадий Казанский
В ролях:
Владимир Самойлов, Кюнна Игнатова, Борис Рыжухин, Пантелеймон Крымов, Вера Медведева, Николай Харитонов, Вячеслав Соколов, Николай Кузьмин, Наталия Кудрявцева, Адриан Филиппов...
Об актёрах подробней
Описание:
Хирург-кардиолог Алексей Северцев полюбил московскую журналистку Елену Рябинину. Они собирались пожениться, когда Лена вернётся из Москвы. И именно в это время у Северцева на операционном столе умирает больной. Беда, как говорят, не приходит одна: спасая из под колёс поезда девочку, Северцев лишается ног. Рябинина хочет остаться с ним и после несчастья, но Алексей не принимает такой жертвы. Ему кажется, что жизнь кончена. Но на помощь к нему приходят Лена, бывшие больные, друзья. Заместитель Северцева Одинцов убеждает его сделать операцию на сердце мальчику Пете Нечаеву. Идут долгие, мучительные часы тренировок: профессор Северцев учится ходить и стоять на протезах. Он делает операцию, побеждая и собственную слабость, и смерть, грозившую маленькому пациенту.





Исходник: DVB
Качество видео: SATRip
Формат видео: AVI
Видео: 688x288 (2,40:1), 25,000 кадров/сек, XviD ~ 1159 kbps avg, 0.234 bit/pixel
Аудио: 48 kHz, Dolby Digital AC3 2.0, 192 kbps
Раздача от:
Общее
Полное имя : I.snova.utro.1961.SATRip_[New-team]_by_AVP_Studio.avi
Формат : AVI
Формат/Информация : Audio Video Interleave
Размер файла : 745 Мбайт
Продолжительность : 1 ч. 16 м.
Общий поток : 1360 Кбит/сек
Программа кодирования : VirtualDubMod 1.5.10.3 | www.virtualdub-fr.org || (build 2550/release)
Библиотека кодирования : VirtualDubMod build 2550/release
Видео
Идентификатор : 0
Формат : MPEG-4 Visual
Профиль формата : Advanced Simple@L5
Настройки формата : BVOP1 / Custom Matrix
Параметр BVOP формата : 1
Параметр QPel формата : Нет
Параметр GMC формата : Без точки перехода
Параметр матрицы формата : Выборочная
Идентификатор кодека : XVID
Идентификатор кодека/Подсказка : XviD
Продолжительность : 1 ч. 16 м.
Битрейт : 1159 Кбит/сек
Ширина : 688 пикселей
Высота : 288 пикселей
Соотношение сторон : 2,40:1
Частота кадров : 25,000 кадров/сек
Цветовое пространство : YUV
Субдискретизация насыщенности : 4:2:0
Битовая глубина : 8 бит
Тип развёртки : Прогрессивная
Метод сжатия : С потерями
Бит/(Пиксели*Кадры) : 0.234
Размер потока : 635 Мбайт (85%)
Библиотека кодирования : XviD 73
Аудио
Идентификатор : 1
Формат : AC-3
Формат/Информация : Audio Coding 3
Идентификатор кодека : 2000
Продолжительность : 1 ч. 16 м.
Вид битрейта : Постоянный
Битрейт : 192 Кбит/сек
Каналы : 2 канала
Расположение каналов : Front: L R
Частота : 48,0 КГц
Частота кадров : 31,250 кадров/сек (1536 SPF)
Битовая глубина : 16 бит
Метод сжатия : С потерями
Размер потока : 105 Мбайт (14%)
Выравнивание : Разделение по промежуткам
Продолжительность промежутка : 40 мс. (1,00 видеокадр)
Время предзагрузки промежутка : 500 мс





   Похожие торренты   Торрент   Размер 
В этой теме нет новых непрочитанных сообщений. И снова утро (1961) SATRip-AVC от New-Team

9 | 1

744.06 МБ

В этой теме нет новых непрочитанных сообщений. Доброе утро (1955) SATRip от New-Team

3 | 1

742.54 МБ

В этой теме нет новых непрочитанных сообщений. Доброе утро (1955) SATRip от New-Team

1 | 0

1.09 ГБ

В этой теме нет новых непрочитанных сообщений. Доброе утро (1955) SATRip-AVC от New-Team

14 | 6

1.09 ГБ

В этой теме нет новых непрочитанных сообщений. Перевал (1961) SATRip-AVC от New-Team

9 | 0

1.09 ГБ

В этой теме нет новых непрочитанных сообщений. Водяной (1961) SATRip от New-Team

16 | 0

371.99 МБ

В этой теме нет новых непрочитанных сообщений. Водяной (1961) SATRip-AVC от New-Team

13 | 0

372.24 МБ




Вы не можете начинать темы
Вы не можете отвечать на сообщения
Вы не можете редактировать свои сообщения
Вы не можете удалять свои сообщения
Вы не можете добавлять вложения

Перейти:  
 Вход
ppkBB3cker v.2 © 2008-2014 @ PPK
[ Time : 0.016s | 18 Queries | GZIP : Off ]

cron