img image001 image001 image001 image001 image001 image001 image001 image001 image001 image001 image001 image001 image001 image001 image001 image001

Planets Sun Sun Sun
Статистика раздачи
Автор: Снежана | Размер: 744.06 МБ | Добавлен: 26 июн 2018
Раздают: 24    Качают: 1
Скачать торрент
Скачать торрент
Описание торрента

СообщениеДобавлено: 26 июн 2018 

Страна: СССР
Производство: Ленфильм
Жанр: драма
Год выпуска: 1961
Продолжительность: 01:16:37
Перевод: Не требуется
Cубтитры: нет
Оригинальная аудиодорожка: русский
Режиссер: Геннадий Казанский
В ролях:
Владимир Самойлов, Кюнна Игнатова, Борис Рыжухин, Пантелеймон Крымов, Вера Медведева, Николай Харитонов, Вячеслав Соколов, Николай Кузьмин, Наталия Кудрявцева, Адриан Филиппов...
Об актёрах подробней
Описание:
Хирург-кардиолог Алексей Северцев полюбил московскую журналистку Елену Рябинину. Они собирались пожениться, когда Лена вернётся из Москвы. И именно в это время у Северцева на операционном столе умирает больной. Беда, как говорят, не приходит одна: спасая из под колёс поезда девочку, Северцев лишается ног. Рябинина хочет остаться с ним и после несчастья, но Алексей не принимает такой жертвы. Ему кажется, что жизнь кончена. Но на помощь к нему приходят Лена, бывшие больные, друзья. Заместитель Северцева Одинцов убеждает его сделать операцию на сердце мальчику Пете Нечаеву. Идут долгие, мучительные часы тренировок: профессор Северцев учится ходить и стоять на протезах. Он делает операцию, побеждая и собственную слабость, и смерть, грозившую маленькому пациенту.





Исходник: DVB
Качество видео: SATRip-AVC
Формат видео: MKV
Видео: 696->875x372 (2,35:1), 25,000 кадров/сек, H264 ~ 1164 kbps avg, 0.180 bit/pixel
Аудио: 48 kHz, Dolby Digital AC3 2.0, 192 kbps
Раздача от:
Общее
Полное имя : I.snova.utro.1961.SATRip-AVC_[New-team]_by_AVP_Studio.mkv
Формат : Matroska
Версия формата : Version 2
Размер файла : 744 Мбайт
Продолжительность : 1 ч. 16 м.
Общий поток : 1358 Кбит/сек
Дата кодирования : UTC 2018-06-06 17:52:59
Программа кодирования : mkvmerge v6.1.0 ('Old Devil') built on Mar 4 2013 09:10:42
Библиотека кодирования : libebml v1.3.0 + libmatroska v1.4.0
Видео
Идентификатор : 1
Формат : AVC
Формат/Информация : Advanced Video Codec
Профиль формата : High@L4.1
Настройки формата : CABAC / 10 Ref Frames
Параметр CABAC формата : Да
Параметр RefFrames формата : 10 кадров
Идентификатор кодека : V_MPEG4/ISO/AVC
Продолжительность : 1 ч. 16 м.
Битрейт : 1164 Кбит/сек
Ширина : 696 пикселей
Высота : 372 пикселя
Соотношение сторон : 2,35:1
Соотношение сторон в оригинале : 2,35:1
Режим частоты кадров : Постоянный
Частота кадров : 25,000 кадров/сек
Цветовое пространство : YUV
Субдискретизация насыщенности : 4:2:0
Битовая глубина : 8 бит
Тип развёртки : Прогрессивная
Бит/(Пиксели*Кадры) : 0.180
Размер потока : 624 Мбайт (84%)
Библиотека кодирования : x264 core 130 r2273 b3065e6
Настройки программы : cabac=1 / ref=10 / deblock=1:-2:-1 / analyse=0x3:0x113 / me=umh / subme=10 / psy=1 / psy_rd=1.00:0.00 / mixed_ref=1 / me_range=32 / chroma_me=1 / trellis=2 / 8x8dct=1 / cqm=0 / deadzone=21,11 / fast_pskip=1 / chroma_qp_offset=-2 / threads=6 / lookahead_threads=1 / sliced_threads=0 / nr=0 / decimate=0 / interlaced=0 / bluray_compat=0 / constrained_intra=0 / bframes=8 / b_pyramid=2 / b_adapt=2 / b_bias=0 / direct=3 / weightb=1 / open_gop=0 / weightp=2 / keyint=250 / keyint_min=25 / scenecut=40 / intra_refresh=0 / rc=2pass / mbtree=0 / bitrate=1164 / ratetol=1.0 / qcomp=0.60 / qpmin=0 / qpmax=69 / qpstep=4 / cplxblur=20.0 / qblur=0.5 / ip_ratio=1.40 / pb_ratio=1.30 / aq=1:1.00
Default : Да
Forced : Нет
Аудио
Идентификатор : 2
Формат : AC-3
Формат/Информация : Audio Coding 3
Идентификатор кодека : A_AC3
Продолжительность : 1 ч. 16 м.
Вид битрейта : Постоянный
Битрейт : 192 Кбит/сек
Каналы : 2 канала
Расположение каналов : Front: L R
Частота : 48,0 КГц
Частота кадров : 31,250 кадров/сек (1536 SPF)
Битовая глубина : 16 бит
Метод сжатия : С потерями
Размер потока : 105 Мбайт (14%)
Default : Да
Forced : Нет





   Похожие торренты   Торрент   Размер 
В этой теме нет новых непрочитанных сообщений. И снова утро (1961) SATRip от New-Team

0 | 1

745.46 МБ

В этой теме нет новых непрочитанных сообщений. Доброе утро (1955) SATRip-AVC от New-Team

14 | 6

1.09 ГБ

В этой теме нет новых непрочитанных сообщений. Доброе утро (1955) SATRip от New-Team

1 | 0

1.09 ГБ

В этой теме нет новых непрочитанных сообщений. Доброе утро (1955) SATRip от New-Team

3 | 1

742.54 МБ

В этой теме нет новых непрочитанных сообщений. 9 дней и одно утро (2014) DVD5 от New-Team | Лицензия

140 | 17

4.02 ГБ

В этой теме нет новых непрочитанных сообщений. 9 дней и одно утро (2014) DVDRip-AVC от New-Team | лицензия

228 | 8

1.46 ГБ

В этой теме нет новых непрочитанных сообщений. Хождение по мукам: Хмурое утро (1959) DVDRip от New-Team

3 | 0

745.2 МБ




Вы не можете начинать темы
Вы не можете отвечать на сообщения
Вы не можете редактировать свои сообщения
Вы не можете удалять свои сообщения
Вы не можете добавлять вложения

Перейти:  
 Вход
ppkBB3cker v.2 © 2008-2014 @ PPK
[ Time : 0.447s | 18 Queries | GZIP : Off ]

cron