img image001 image001 image001 image001 image001 image001 image001 image001 image001 image001 image001 image001 image001 image001 image001 image001

Planets Sun Sun Sun
Статистика раздачи
Автор: Снежана | Размер: 2.4 ГБ | Добавлен: 26 июн 2018
Раздают: 61    Качают: 10
Скачать торрент
Скачать торрент
Описание торрента

СообщениеДобавлено: 26 июн 2018 

Ширли-мырли
«Ширли мырли, шир манирли, шир матыркин, мур-мур-кин»


Год выпуска: 1995
Страна: Россия
Производство: Мосфильм
Жанр: Комедия
Режиссёр: Владимир Меньшов
В ролях: Валерий Гаркалин, Вера Алентова, Инна Чурикова, Игорь Угольников, Армен Джигарханян, Олег Табаков, Леонид Куравлев, Нонна Мордюкова, Любовь Полищук, Сергей Баталов, Лев Борисов, Сергей Арцибашев, Михаил Кокшенов, Александр Панкратов-Черный, Александр Ворошило, Инна Кара-Моско, Евгений Герчаков, Всеволод Санаев, Владимир Меньшов, Нина Алисова, Алексей Булдаков, Евгений Весник, Ролан Быков, Олег Ефремов, Аркадий Коваль.
Перевод: Не требуется
Субтитры: Нет
Реклама: Отсутствует
Описание: Невероятная история о братьях — близнецах, никогда прежде не слыхавших друг о друге. Один из них, в младенчестве подброшенный в табор, стал цыганским бароном; другой рос в детском доме — и теперь он еврей — музыкант с мировым именем; третьего воспитывала родная тетя, и домашнее воспитание принесло свои плоды: он стал авторитетнейшим в СНГ вором и аферистом.
Именно он, благодаря своим талантам, обводит вокруг пальца главу мафии и похищает фантастический алмаз «Спаситель России». Стоимость найденного в Сибири драгоценного камня такова, что вся страна сможет 3 года отдыхать на Канарских островах. Его размерами потрясено мировое сообщество. Английская королева рыдает, закрывшись в спальне.
Южно — африканские шахтеры поклялись не выходить на поверхность, пока не отыщут более крупный самородок… А в России сенсация следует за сенсацией! Находка века породила ограбление века! Мир, затаив дыхание, следит за стремительной сменой событий…

Качество: WEB-DLRip-AVC
Продолжительность: 02:15:16
Формат: MKV
Видео кодек: MPEG-4 AVC
Аудио кодек: AС3
Видео: 790x576 (1,372), 25.000 fps, x264 ~2151 kbps avg, 0.189 bit/pixel
Аудио: 48 kHz, AC3, 3/2 (L,C,R,l,r) + LFE ch, ~384.00 kbps avg

Релиз от: Rip by:
x264 [info]: frame I:1469 Avg QP:14.63 size: 56732
x264 [info]: frame P:79091 Avg QP:18.14 size: 18474
x264 [info]: frame B:122340 Avg QP:20.38 size: 5209
Общее
Уникальный идентификатор : 35522929792966376610828827790759931688 (0x1AB977A8D7601FBC647EEEF15D7FAF28)
Полное имя : D:ВидеоShirli-myrli.1995.x264.WEB-DLRip.(AVC).OlLanDGroup.mkv
Формат : Matroska
Версия формата : Version 4 / Version 2
Размер файла : 2,40 Гбайт
Продолжительность : 2 ч. 15 м.
Общий поток : 2537 Кбит/сек
Название фильма : Shirli-myrli.1995.x264.WEB-DLRip.(AVC).OlLanDGroup
Дата кодирования : UTC 2018-06-16 10:58:50
Программа кодирования : mkvmerge v23.0.0 ('The Bride Said No') 64-bit
Библиотека кодирования : libebml v1.3.6 + libmatroska v1.4.9
DURATION : 02:15:14.880000000
NUMBER_OF_FRAMES : 253590
NUMBER_OF_BYTES : 389514240
_STATISTICS_WRITING_APP : mkvmerge v23.0.0 ('The Bride Said No') 64-bit
_STATISTICS_WRITING_DATE_UTC : 2018-06-16 10:58:50
_STATISTICS_TAGS : BPS DURATION NUMBER_OF_FRAMES NUMBER_OF_BYTES
Attachment : Yes
Видео
Идентификатор : 1
Формат : AVC
Формат/Информация : Advanced Video Codec
Профиль формата : High@L4.1
Параметр CABAC формата : Да
Параметр ReFrames формата : 10 кадров
Идентификатор кодека : V_MPEG4/ISO/AVC
Продолжительность : 2 ч. 15 м.
Битрейт : 2151 Кбит/сек
Ширина : 790 пикселей
Высота : 576 пикселей
Соотношение сторон : 1,372
Режим частоты кадров : Постоянный
Частота кадров : 25,000 кадров/сек
Цветовое пространство : YUV
Субдискретизация насыщенности : 4:2:0
Битовая глубина : 8 бит
Тип развёртки : Прогрессивная
Бит/(Пиксели*Кадры) : 0.189
Размер потока : 1,99 Гбайт (83%)
Заголовок : Shirli-myrli.1995.x264.WEB-DLRip.(AVC).by Vovan366
Библиотека кодирования : x264 core 146 r2538 121396c
Настройки программы : cabac=1 / ref=10 / deblock=1:-3:-3 / analyse=0x3:0x133 / me=umh / subme=11 / psy=1 / psy_rd=0.95:0.05 / mixed_ref=1 / me_range=32 / chroma_me=1 / trellis=2 / 8x8dct=1 / cqm=0 / deadzone=21,11 / fast_pskip=0 / chroma_qp_offset=-3 / threads=6 / lookahead_threads=1 / sliced_threads=0 / nr=0 / decimate=0 / interlaced=0 / bluray_compat=0 / constrained_intra=0 / bframes=10 / b_pyramid=2 / b_adapt=1 / b_bias=0 / direct=3 / weightb=1 / open_gop=0 / weightp=2 / keyint=250 / keyint_min=25 / scenecut=40 / intra_refresh=0 / rc_lookahead=40 / rc=2pass / mbtree=0 / bitrate=2151 / ratetol=1.0 / qcomp=0.60 / qpmin=0 / qpmax=69 / qpstep=4 / cplxblur=20.0 / qblur=0.5 / vbv_maxrate=50000 / vbv_bufsize=52500 / nal_hrd=none / filler=0 / ip_ratio=1.40 / pb_ratio=1.30 / aq=1:1.00
Default : Да
Forced : Нет
Аудио
Идентификатор : 2
Формат : AC-3
Формат/Информация : Audio Coding 3
Расширение режима : CM (complete main)
Параметр Endianness формата : Big
Идентификатор кодека : A_AC3
Продолжительность : 2 ч. 15 м.
Вид битрейта : Постоянный
Битрейт : 384 Кбит/сек
Каналы : 6 каналов
Расположение каналов : Front: L C R, Side: L R, LFE
Частота : 48,0 КГц
Битовая глубина : 16 бит
Метод сжатия : С потерями
Размер потока : 372 Мбайт (15%)
Заголовок : AC3 5.1 @ 384 kbps
Язык : Russian
Default : Да
Forced : Нет
Меню
00:00:00.000 : ru:Глава 1
00:06:03.000 : ru:Глава 2
00:09:58.000 : ru:Глава 3
00:16:08.000 : ru:Глава 4
00:22:26.000 : ru:Глава 5
00:28:32.000 : ru:Глава 6
00:33:57.000 : ru:Глава 7
00:39:39.000 : ru:Глава 8
00:47:34.000 : ru:Глава 9
00:55:19.000 : ru:Глава 10
01:00:22.000 : ru:Глава 11
01:08:26.000 : ru:Глава 12
01:15:09.000 : ru:Глава 13
01:19:41.000 : ru:Глава 14
01:25:47.000 : ru:Глава 15
01:31:54.000 : ru:Глава 16
01:38:36.000 : ru:Глава 17
01:43:21.000 : ru:Глава 18
01:48:34.000 : ru:Глава 19
01:53:42.000 : ru:Глава 20
01:58:16.000 : ru:Глава 21
02:03:48.000 : ru:Глава 22
02:10:10.000 : ru:Глава 23




   Похожие торренты   Торрент   Размер 
В этой теме нет новых непрочитанных сообщений. Ширли-мырли (1995) WEB-DL 1080p от OlLanDGroup

38 | 6

11.61 ГБ

В этой теме нет новых непрочитанных сообщений. Ширли-мырли (1995) WEB-DL 720p от HDClub

333 | 28

4.3 ГБ

В этой теме нет новых непрочитанных сообщений. Ширли-мырли (1995) DVD9 | Реставрация

72 | 15

6.85 ГБ

В этой теме нет новых непрочитанных сообщений. Ширли / Ширли Бейси / Shirley (2011) TVRip

64 | 11

1.07 ГБ

В этой теме нет новых непрочитанных сообщений. Ширли Валентайн / Shirley Valentine (1989) HDTVRip | Р

0 | 3

1.46 ГБ

В этой теме нет новых непрочитанных сообщений. Ширли Валентайн / Shirley Valentine (1989) HDTVRip

19 | 30

746.01 МБ

В этой теме нет новых непрочитанных сообщений. Ширли Валентайн / Shirley Valentine (1989) HDTVRip 720p

13 | 29

7.41 ГБ




Вы не можете начинать темы
Вы не можете отвечать на сообщения
Вы не можете редактировать свои сообщения
Вы не можете удалять свои сообщения
Вы не можете добавлять вложения

Перейти:  
 Вход
ppkBB3cker v.2 © 2008-2014 @ PPK
[ Time : 0.016s | 15 Queries | GZIP : Off ]

cron