img image001 image001 image001 image001 image001 image001 image001 image001 image001 image001 image001 image001 image001 image001 image001 image001

Planets Sun Sun Sun
Статистика раздачи
Автор: Снежана | Размер: 1.45 ГБ | Добавлен: 26 июн 2018
Раздают: 0    Качают: 0
Скачать торрент
Скачать торрент
Описание торрента

СообщениеДобавлено: 26 июн 2018 

Информация о фильме
Название: Тренер
Год выхода: 2018
Жанр: Драма, спорт
Режиссер: Данила Козловский
В ролях: Данила Козловский, Владимир Ильин, Андрей Смоляков, Ольга Зуева, Ирина Горбачёва, Виктор Вержбицкий, Мария Лобанова, Павел Ворожцов, Игорь Гордин, Александр Ильин
О фильме:
Футболист национальной сборной Юрий Столешников в ответственный момент не забивает пенальти. После досадной ошибки Столешников покидает сборную, завершает карьеру и становится тренером маленькой провинциальной команды. Именно с этим клубом Столешникову предстоит совершить чудо и вновь поверить в себя.

Страна: Россия
Студия: DK Entertainment, Кинослово, Студия Тритэ
Продолжительность: 02:12:22
Перевод: Не требуется (русский) iTunes
Файл
Кодек: x264
Формат: MKV
Качество: WEB-DLRip-AVC
Видео: 960x402 (2.40:1), 25,000 fps, ~1183 kbps, 0.123 bit/pixel
Звук: AC3, 6 ch, 384 Kbps
Субтитры: Отсутствуют
General
Unique ID : 72832016501717330669975973464856725182 (0x36CAEFA77742C2E995FD37A1629206BE)
Complete name : C:UsersDoMiNoDesktopВидео_3Тренер_2018_WEB_DLRIP-AVC_[-=DoMiNo=-].mkv
Format : Matroska
Format version : Version 4 / Version 2
File size : 1.45 GiB
Duration : 2 h 12 min
Overall bit rate : 1 569 kb/s
Movie name : Тренер
Deion : Футболист национальной сборной Юрий Столешников в ответственный момент не забивает пенальти. После досадной ошибки он покидает сборную, завершает карьеру и становится тренером маленькой провинциальной команды. Именно с этим клубом Юрию предстоит совершить чудо и вновь поверить в себя.
Writing application : XviD4PSP 7.0.452 DAILY
Writing library : Lavf57.71.100
ErrorDetectionType : Per level 1
Attachments : poster.jpg
ACTORS : Danila Kozlovsky, Irina Gorbacheva, Vladimir Ilin, Andrey Smolyakov, Viktor Verzhbitskiy, Aleksandr Ilin, Dmitry Chebotarev, Mariya Lobanova, Olya Zueva, Pavel Vorozhtsov, Igor Kosterin
COUNTRY : Russia
DATE : 2018-04-20
DIRECTOR : Danila Kozlovsky
ENCODING_INFO : MATROSKA,WEBM > MKV Пользовательский / H264 > X264 VBR-2P 1183kbps Пользовательский / AC3 > COPY Безопасное
GENRE : драма
HD_VIDEO : 1
ITUNEXTC : ru-movie|12+|200|
Language : und
MEDIA_TYPE : 9
PRODUCER : Anton Zlatopolsky, Leonid Vereshchagin
PUBLISHER : Central Partnership, Cinema Fund, Студия ТриТэ
RATING : 7.00
Video
ID : 1
Format : AVC
Format/Info : Advanced Video Codec
Format profile : High@L4.1
Format settings : CABAC / 14 Ref Frames
Format settings, CABAC : Yes
Format settings, ReFrames : 14 frames
Codec ID : V_MPEG4/ISO/AVC
Duration : 2 h 12 min
Bit rate : 1 183 kb/s
Width : 960 pixels
Height : 402 pixels
Display aspect ratio : 2.40:1
Frame rate mode : Constant
Frame rate : 25.000 FPS
Color space : YUV
Chroma subsampling : 4:2:0
Bit depth : 8 bits
Scan type : Progressive
Bits/(Pixel*Frame) : 0.123
Stream size : 1.07 GiB (74%)
Title : RIP_BY_-=DoMiNo=-
Writing library : x264 core 155 r2901M 7d0ff22
Encoding settings : cabac=1 / ref=14 / deblock=1:-3:-3 / analyse=0x3:0x133 / me=umh / subme=11 / psy=1 / psy_rd=1.00:0.10 / mixed_ref=1 / me_range=48 / chroma_me=1 / trellis=2 / 8x8dct=1 / cqm=0 / deadzone=21,11 / fast_pskip=0 / chroma_qp_offset=-3 / threads=6 / lookahead_threads=1 / sliced_threads=0 / nr=0 / decimate=1 / interlaced=0 / bluray_compat=0 / constrained_intra=0 / bframes=12 / b_pyramid=2 / b_adapt=2 / b_bias=0 / direct=3 / weightb=1 / open_gop=0 / weightp=2 / keyint=250 / keyint_min=25 / scenecut=40 / intra_refresh=0 / rc_lookahead=50 / rc=2pass / mbtree=0 / bitrate=1183 / ratetol=1.0 / qcomp=0.65 / qpmin=0 / qpmax=69 / qpstep=4 / cplxblur=20.0 / qblur=0.5 / vbv_maxrate=50000 / vbv_bufsize=62500 / nal_hrd=none / filler=0 / ip_ratio=1.40 / pb_ratio=1.30 / aq=1:0.95
Language : Russian
Default : Yes
Forced : No
Color range : Limited
Color primaries : BT.709
Transfer characteristics : BT.709
Matrix coefficients : BT.709
Audio
ID : 2
Format : AC-3
Format/Info : Audio Coding 3
Codec ID : A_AC3
Duration : 2 h 12 min
Bit rate mode : Constant
Bit rate : 384 kb/s
Channel(s) : 6 channels
Channel positions : Front: L C R, Side: L R, LFE
Sampling rate : 48.0 kHz
Frame rate : 31.250 FPS (1536 SPF)
Bit depth : 16 bits
Compression mode : Lossy
Stream size : 364 MiB (24%)
Title : iTunes
Language : Russian
Service kind : Complete Main
Default : Yes
Forced : No
Menu
00:00:00.000 : :Глава 1
00:11:10.160 : :Глава 2
00:23:01.320 : :Глава 3
00:34:24.840 : :Глава 4
00:46:23.320 : :Глава 5
00:57:16.480 : :Глава 6
01:09:17.600 : :Глава 7
01:20:30.520 : :Глава 8
01:31:38.960 : :Глава 9
01:43:33.520 : :Глава 10
01:55:32.760 : :Глава 11
02:07:05.160 : :Глава 12



   Похожие торренты   Торрент   Размер 
В этой теме нет новых непрочитанных сообщений. Тренер (2018) WEB-DLRip от Scarabey | iTunes

6124 | 104

1.45 ГБ

В этой теме нет новых непрочитанных сообщений. Тренер (2018) WEB-DLRip от MegaPeer | iTunes

14369 | 233

1.46 ГБ

В этой теме нет новых непрочитанных сообщений. Тренер (2018) WEB-DLRip от Scarabey | iTunes

1120 | 22

2.18 ГБ

В этой теме нет новых непрочитанных сообщений. Тренер (2018) WEB-DLRip-AVC от ExKinoRay | iTunes

558 | 16

746.6 МБ

В этой теме нет новых непрочитанных сообщений. Тренер (2018) WEB-DLRip от Generalfilm | КПК | iTunes

324 | 18

503.48 МБ

В этой теме нет новых непрочитанных сообщений. Тренер (2018) WEB-DLRip от MegaPeer | iTunes

2717 | 95

2.18 ГБ

В этой теме нет новых непрочитанных сообщений. Тренер (2018) WEB-DLRip-AVC от OlLanDGroup | iTunes

1479 | 20

2.18 ГБ




Вы не можете начинать темы
Вы не можете отвечать на сообщения
Вы не можете редактировать свои сообщения
Вы не можете удалять свои сообщения
Вы не можете добавлять вложения

Перейти:  
 Вход
ppkBB3cker v.2 © 2008-2014 @ PPK
[ Time : 0.048s | 16 Queries | GZIP : Off ]

cron