img image001 image001 image001 image001 image001 image001 image001 image001 image001 image001 image001 image001 image001 image001 image001 image001

Planets Sun Sun Sun
Статистика раздачи
Автор: Снежана | Размер: 743.34 МБ | Добавлен: 26 июн 2018
Раздают: 0    Качают: 0
Скачать торрент
Скачать торрент
Описание торрента

СообщениеДобавлено: 26 июн 2018 

Страна: СССР
Производство: Одесская киностудия
Жанр: драма
Год выпуска: 1960
Продолжительность: 01:13:01
Перевод: Не требуется
Cубтитры: нет
Оригинальная аудиодорожка: русский
Режиссер: Владимир Кочетов
В ролях:
Кирилл Столяров, Людмила Мерщий, Николай Засеев-Руденко, Николай Крюков, Вадим Новиков, Михаил Пуговкин, Юрий Мартынов, Олесь Рудковский, Савелий Крамаров, Ю. Рождественский, Сергей Столяров, Борис Сабуров...
Об актёрах подробней
Описание:
В артиллерийскую школу пришло новое пополнение. Обходя новобранцев, старшина Баба пытается опытным взглядом определить личные качества каждого. У Анатолия Бескова тревожно на душе. Он хотел заменить в армии отца, погибшего лётчика-испытателя. Но комиссия признала его негодным к службе в авиации. Не испытывая интереса к артиллерии, юноша то и дело допускает ошибки. Вспыльчивый лейтенант Серов просит замполита Лепко удалить Бескова из его взвода. Но замполит считает, что надо заниматься воспитанием молодого солдата. Поддерживает Толю и Ольга. Девушка знает, что он упорно тренируется, готовясь к новой медкомиссии. Беседа с замполитом открыла Бескову простую истину, что всякая армейская школа есть школа мужества и патриотизма. С этого момента Анатолий старается завоевать уважение товарищей и стать примерным курсантом. Он успешно проходит комиссию и получает направление в авиацию.





Исходник: DVB
Качество видео: SATRip
Формат видео: AVI
Видео: 688x512 (4:3), 25,000 кадров/сек, XviD ~ 1222 kbps avg, 0.139 bit/pixel
Аудио: 48 kHz, Dolby Digital AC3 2.0, 192 kbps
Раздача от:
Общее
Полное имя : Im.bylo.devyatnadcat...1960.SATRip_[New-team]_by_AVP_Studio.avi
Формат : AVI
Формат/Информация : Audio Video Interleave
Размер файла : 743 Мбайт
Продолжительность : 1 ч. 13 м.
Общий поток : 1423 Кбит/сек
Программа кодирования : VirtualDubMod 1.5.10.3 | www.virtualdub-fr.org || (build 2550/release)
Библиотека кодирования : VirtualDubMod build 2550/release
Видео
Идентификатор : 0
Формат : MPEG-4 Visual
Профиль формата : Advanced Simple@L5
Настройки формата : BVOP1 / Custom Matrix
Параметр BVOP формата : 1
Параметр QPel формата : Нет
Параметр GMC формата : Без точки перехода
Параметр матрицы формата : Выборочная
Идентификатор кодека : XVID
Идентификатор кодека/Подсказка : XviD
Продолжительность : 1 ч. 13 м.
Битрейт : 1222 Кбит/сек
Ширина : 688 пикселей
Высота : 512 пикселей
Соотношение сторон : 4:3
Частота кадров : 25,000 кадров/сек
Цветовое пространство : YUV
Субдискретизация насыщенности : 4:2:0
Битовая глубина : 8 бит
Тип развёртки : Прогрессивная
Метод сжатия : С потерями
Бит/(Пиксели*Кадры) : 0.139
Размер потока : 638 Мбайт (86%)
Библиотека кодирования : XviD 73
Аудио
Идентификатор : 1
Формат : AC-3
Формат/Информация : Audio Coding 3
Идентификатор кодека : 2000
Продолжительность : 1 ч. 13 м.
Вид битрейта : Постоянный
Битрейт : 192 Кбит/сек
Каналы : 2 канала
Расположение каналов : Front: L R
Частота : 48,0 КГц
Частота кадров : 31,250 кадров/сек (1536 SPF)
Битовая глубина : 16 бит
Метод сжатия : С потерями
Размер потока : 100 Мбайт (13%)
Выравнивание : Разделение по промежуткам
Продолжительность промежутка : 40 мс. (1,00 видеокадр)
Время предзагрузки промежутка : 500 мс





   Похожие торренты   Торрент   Размер 
В этой теме нет новых непрочитанных сообщений. Им было девятнадцать (1960) SATRip-AVC от New-Team

13 | 2

744.58 МБ

В этой теме нет новых непрочитанных сообщений. Возвращение (1960) SATRip-AVC от New-Team

5 | 1

1.09 ГБ

В этой теме нет новых непрочитанных сообщений. Возвращение (1960) SATRip от New-Team

8 | 1

1.09 ГБ

В этой теме нет новых непрочитанных сообщений. Чудотворная (1960) SATRip-AVC от New-Team

5 | 1

1.09 ГБ

В этой теме нет новых непрочитанных сообщений. Тишина (1960) SATRip-AVC от New-Team

12 | 1

1.09 ГБ

В этой теме нет новых непрочитанных сообщений. Тишина (1960) SATRip от New-Team

21 | 2

1.09 ГБ

В этой теме нет новых непрочитанных сообщений. Чудотворная (1960) SATRip от New-Team

5 | 0

1.09 ГБ




Вы не можете начинать темы
Вы не можете отвечать на сообщения
Вы не можете редактировать свои сообщения
Вы не можете удалять свои сообщения
Вы не можете добавлять вложения

Перейти:  
 Вход
ppkBB3cker v.2 © 2008-2014 @ PPK
[ Time : 0.033s | 16 Queries | GZIP : Off ]

cron