img image001 image001 image001 image001 image001 image001 image001 image001 image001 image001 image001 image001 image001 image001 image001 image001

Planets Sun Sun Sun
Статистика раздачи
Автор: Снежана | Размер: 744.86 МБ | Добавлен: 26 июн 2018
Раздают: 14    Качают: 1
Скачать торрент
Скачать торрент
Описание торрента

СообщениеДобавлено: 26 июн 2018 

Страна: СССР
Производство: Киностудия им. А. Довженко
Жанр: мелодрама
Год выпуска: 1960
Продолжительность: 01:26:45
Перевод: Не требуется
Cубтитры: нет
Оригинальная аудиодорожка: русский
Режиссер: Юрий Лысенко
В ролях:
Сильвия Сергейчикова, Анатолий Федоринов, Юрий Боголюбов, Наташа Галян-Никольская, Анна Николаева, Константин Артеменко, Полина Куманченко, Артем Тарский, Владимир Божко, Тамара Алёшина...
Об актёрах подробней
Описание:
Нелегко складывалась судьба Любы (Сильвия Сергейчикова). Оставшись сиротой в войну, она бросила школу и пошла работать. Человек, которого она любила, оставил ее с дочкой на руках. Люба работает официанткой, в свободное время встречается с Сергеем (Юрий Боголюбов), который не хочет жениться на Любе из-за дочери. Закончив первый класс, Леночка, дочь Любы приносит домой награду за хорошую учебу, и это побуждает Любу пойти в вечернюю школу. В учебе ей помогает инженер-монтажник Долина (Анатолий Федоринов), знакомство с которым пробуждает все лучшее в душе Любы. Так начинается их любовь. А когда заканчивается строительство и Долине надо уезжать, то Люба и Леночка едут вместе с ним.





Исходник: DVB
Качество видео: SATRip
Формат видео: AVI
Видео: 688x368 (1,85:1), 25,000 кадров/сек, XviD ~ 999 kbps avg, 0.158 bit/pixel
Аудио: 48 kHz, Dolby Digital AC3 2.0, 192 kbps
Раздача от:
Общее
Полное имя : Samolet.uhodit.v.9.1960.SATRip_[New-team]_by_AVP_Studio.avi
Формат : AVI
Формат/Информация : Audio Video Interleave
Размер файла : 745 Мбайт
Продолжительность : 1 ч. 26 м.
Общий поток : 1200 Кбит/сек
Программа кодирования : VirtualDubMod 1.5.10.3 | www.virtualdub-fr.org || (build 2550/release)
Библиотека кодирования : VirtualDubMod build 2550/release
Видео
Идентификатор : 0
Формат : MPEG-4 Visual
Профиль формата : Advanced Simple@L5
Настройки формата : BVOP1 / Custom Matrix
Параметр BVOP формата : 1
Параметр QPel формата : Нет
Параметр GMC формата : Без точки перехода
Параметр матрицы формата : Выборочная
Идентификатор кодека : XVID
Идентификатор кодека/Подсказка : XviD
Продолжительность : 1 ч. 26 м.
Битрейт : 999 Кбит/сек
Ширина : 688 пикселей
Высота : 368 пикселей
Соотношение сторон : 1,85:1
Частота кадров : 25,000 кадров/сек
Цветовое пространство : YUV
Субдискретизация насыщенности : 4:2:0
Битовая глубина : 8 бит
Тип развёртки : Прогрессивная
Метод сжатия : С потерями
Бит/(Пиксели*Кадры) : 0.158
Размер потока : 620 Мбайт (83%)
Библиотека кодирования : XviD 73
Аудио
Идентификатор : 1
Формат : AC-3
Формат/Информация : Audio Coding 3
Идентификатор кодека : 2000
Продолжительность : 1 ч. 26 м.
Вид битрейта : Постоянный
Битрейт : 192 Кбит/сек
Каналы : 2 канала
Расположение каналов : Front: L R
Частота : 48,0 КГц
Частота кадров : 31,250 кадров/сек (1536 SPF)
Битовая глубина : 16 бит
Метод сжатия : С потерями
Размер потока : 119 Мбайт (16%)
Выравнивание : Разделение по промежуткам
Продолжительность промежутка : 40 мс. (1,00 видеокадр)
Время предзагрузки промежутка : 500 мс





   Похожие торренты   Торрент   Размер 
В этой теме нет новых непрочитанных сообщений. Самолет уходит в 9 (1960) SATRip-AVC от New-Team

30 | 5

744.37 МБ

В этой теме нет новых непрочитанных сообщений. Самолёт летит в Россию (1994) SATRip-AVC от New-Team

188 | 15

1.46 ГБ

В этой теме нет новых непрочитанных сообщений. Возвращение (1960) SATRip от New-Team

15 | 0

1.09 ГБ

В этой теме нет новых непрочитанных сообщений. Чудотворная (1960) SATRip-AVC от New-Team

20 | 3

1.09 ГБ

В этой теме нет новых непрочитанных сообщений. Чудотворная (1960) SATRip от New-Team

5 | 0

1.09 ГБ

В этой теме нет новых непрочитанных сообщений. Возвращение (1960) SATRip-AVC от New-Team

31 | 0

1.09 ГБ

В этой теме нет новых непрочитанных сообщений. Тишина (1960) SATRip от New-Team

9 | 0

1.09 ГБ




Вы не можете начинать темы
Вы не можете отвечать на сообщения
Вы не можете редактировать свои сообщения
Вы не можете удалять свои сообщения
Вы не можете добавлять вложения

Перейти:  
 Вход
ppkBB3cker v.2 © 2008-2014 @ PPK
[ Time : 0.033s | 18 Queries | GZIP : Off ]

cron