img image001 image001 image001 image001 image001 image001 image001 image001 image001 image001 image001 image001 image001 image001 image001 image001

Planets Sun Sun Sun
Статистика раздачи
Автор: Снежана | Размер: 1.09 ГБ | Добавлен: 26 июн 2018
Раздают: 21    Качают: 2
Скачать торрент
Скачать торрент
Описание торрента

СообщениеДобавлено: 26 июн 2018 

Страна: СССР
Производство: Казахфильм
Жанр: драма
Год выпуска: 1960
Продолжительность: 01:25:57
Перевод: Не требуется
Cубтитры: нет
Оригинальная аудиодорожка: русский
Режиссер: Александр Карпов
В ролях:
Канабек Байсеитов, Раиса Куркина, Александр Карпов, Мухтар Бахтыгереев, И. Шалабаева, Артур Нищёнкин, Серке (Сералы) Кожамкулов, Шахан Мусин, Г. Утепова, Павел Шпрингфельд, Леонид Ясиновский, Ю. Сорокин , Костя Ерошкин...
Об актёрах подробней
Описание:
Когда старому машинисту Хакиму Оспанову предложили должность начальника станции, он отказался. И станцию-то какую выбрали - "Тишина". Хаким отправился в Алма-Ату в управление. Но когда проводник произнёс: "Скоро "Тишина" - не удержался Оспанов, потянуло посмотреть, что же это за станция такая, мимо которой он тридцать лет водил свой паровоз. Вышел на минутку и почему-то остался.





Исходник: DVB
Качество видео: SATRip
Формат видео: AVI
Видео: 704x512 (1,375:1), 25,000 кадров/сек, XviD ~ 1614 kbps avg, 0.179 bit/pixel
Аудио: 48 kHz, Dolby Digital AC3 2.0, 192 kbps
Раздача от:
Общее
Полное имя : Tishina.1960.SATRip_[New-team]_by_AVP_Studio.avi
Формат : AVI
Формат/Информация : Audio Video Interleave
Размер файла : 1,09 Гбайт
Продолжительность : 1 ч. 25 м.
Общий поток : 1816 Кбит/сек
Программа кодирования : VirtualDubMod 1.5.10.3 | www.virtualdub-fr.org || (build 2550/release)
Библиотека кодирования : VirtualDubMod build 2550/release
Видео
Идентификатор : 0
Формат : MPEG-4 Visual
Профиль формата : Advanced Simple@L5
Настройки формата : BVOP1 / Custom Matrix
Параметр BVOP формата : 1
Параметр QPel формата : Нет
Параметр GMC формата : Без точки перехода
Параметр матрицы формата : Выборочная
Идентификатор кодека : XVID
Идентификатор кодека/Подсказка : XviD
Продолжительность : 1 ч. 25 м.
Битрейт : 1614 Кбит/сек
Ширина : 704 пикселя
Высота : 512 пикселей
Соотношение сторон : 1,375
Частота кадров : 25,000 кадров/сек
Цветовое пространство : YUV
Субдискретизация насыщенности : 4:2:0
Битовая глубина : 8 бит
Тип развёртки : Прогрессивная
Метод сжатия : С потерями
Бит/(Пиксели*Кадры) : 0.179
Размер потока : 992 Мбайт (89%)
Библиотека кодирования : XviD 73
Аудио
Идентификатор : 1
Формат : AC-3
Формат/Информация : Audio Coding 3
Идентификатор кодека : 2000
Продолжительность : 1 ч. 25 м.
Вид битрейта : Постоянный
Битрейт : 192 Кбит/сек
Каналы : 2 канала
Расположение каналов : Front: L R
Частота : 48,0 КГц
Частота кадров : 31,250 кадров/сек (1536 SPF)
Битовая глубина : 16 бит
Метод сжатия : С потерями
Размер потока : 118 Мбайт (11%)
Выравнивание : Разделение по промежуткам
Продолжительность промежутка : 40 мс. (1,00 видеокадр)
Время предзагрузки промежутка : 500 мс





   Похожие торренты   Торрент   Размер 
В этой теме нет новых непрочитанных сообщений. Тишина (1960) SATRip-AVC от New-Team

10 | 1

1.09 ГБ

В этой теме нет новых непрочитанных сообщений. Тишина (1960) DVB от AND03AND

15 | 1

1.5 ГБ

В этой теме нет новых непрочитанных сообщений. А у нас была тишина... (1950) SATRip от New-Team

7 | 3

744.93 МБ

В этой теме нет новых непрочитанных сообщений. А у нас была тишина... (1950) SATRip-AVC от New-Team

14 | 1

1.09 ГБ

В этой теме нет новых непрочитанных сообщений. А у нас была тишина... (1950) SATRip от New-Team

7 | 1

1.19 ГБ

В этой теме нет новых непрочитанных сообщений. Чудотворная (1960) SATRip от New-Team

5 | 0

1.09 ГБ

В этой теме нет новых непрочитанных сообщений. Возвращение (1960) SATRip-AVC от New-Team

8 | 1

1.09 ГБ




Вы не можете начинать темы
Вы не можете отвечать на сообщения
Вы не можете редактировать свои сообщения
Вы не можете удалять свои сообщения
Вы не можете добавлять вложения

Перейти:  
 Вход
ppkBB3cker v.2 © 2008-2014 @ PPK
[ Time : 0.030s | 16 Queries | GZIP : Off ]

cron