img image001 image001 image001 image001 image001 image001 image001 image001 image001 image001 image001 image001 image001 image001 image001 image001

Planets Sun Sun Sun
Статистика раздачи
Автор: Снежана | Размер: 1.09 ГБ | Добавлен: 26 июн 2018
Раздают: 18    Качают: 1
Скачать торрент
Скачать торрент
Описание торрента

СообщениеДобавлено: 26 июн 2018 

Страна: СССР
Производство: Казахфильм
Жанр: драма
Год выпуска: 1960
Продолжительность: 01:25:57
Перевод: Не требуется
Cубтитры: нет
Оригинальная аудиодорожка: русский
Режиссер: Александр Карпов
В ролях:
Канабек Байсеитов, Раиса Куркина, Александр Карпов, Мухтар Бахтыгереев, И. Шалабаева, Артур Нищёнкин, Серке (Сералы) Кожамкулов, Шахан Мусин, Г. Утепова, Павел Шпрингфельд, Леонид Ясиновский, Ю. Сорокин , Костя Ерошкин...
Об актёрах подробней
Описание:
Когда старому машинисту Хакиму Оспанову предложили должность начальника станции, он отказался. И станцию-то какую выбрали - "Тишина". Хаким отправился в Алма-Ату в управление. Но когда проводник произнёс: "Скоро "Тишина" - не удержался Оспанов, потянуло посмотреть, что же это за станция такая, мимо которой он тридцать лет водил свой паровоз. Вышел на минутку и почему-то остался.





Исходник: DVB
Качество видео: SATRip-AVC
Формат видео: MKV
Видео: 716->789x572 (1,379:1), 25,000 кадров/сек, H264 ~ 1620 kbps avg, 0.158 bit/pixel
Аудио: 48 kHz, Dolby Digital AC3 2.0, 192 kbps
Раздача от:
Общее
Полное имя : Tishina.1960.SATRip-AVC_[New-team]_by_AVP_Studio.mkv
Формат : Matroska
Версия формата : Version 2
Размер файла : 1,09 Гбайт
Продолжительность : 1 ч. 25 м.
Общий поток : 1814 Кбит/сек
Дата кодирования : UTC 2018-06-18 10:58:35
Программа кодирования : mkvmerge v6.1.0 ('Old Devil') built on Mar 4 2013 09:10:42
Библиотека кодирования : libebml v1.3.0 + libmatroska v1.4.0
Видео
Идентификатор : 1
Формат : AVC
Формат/Информация : Advanced Video Codec
Профиль формата : High@L4.1
Настройки формата : CABAC / 10 Ref Frames
Параметр CABAC формата : Да
Параметр RefFrames формата : 10 кадров
Идентификатор кодека : V_MPEG4/ISO/AVC
Продолжительность : 1 ч. 25 м.
Битрейт : 1620 Кбит/сек
Ширина : 716 пикселей
Высота : 572 пикселя
Соотношение сторон : 1,379
Соотношение сторон в оригинале : 1,380
Режим частоты кадров : Постоянный
Частота кадров : 25,000 кадров/сек
Цветовое пространство : YUV
Субдискретизация насыщенности : 4:2:0
Битовая глубина : 8 бит
Тип развёртки : Прогрессивная
Бит/(Пиксели*Кадры) : 0.158
Размер потока : 975 Мбайт (87%)
Библиотека кодирования : x264 core 130 r2273 b3065e6
Настройки программы : cabac=1 / ref=10 / deblock=1:-2:-1 / analyse=0x3:0x113 / me=umh / subme=10 / psy=1 / psy_rd=1.00:0.00 / mixed_ref=1 / me_range=32 / chroma_me=1 / trellis=2 / 8x8dct=1 / cqm=0 / deadzone=21,11 / fast_pskip=1 / chroma_qp_offset=-2 / threads=6 / lookahead_threads=1 / sliced_threads=0 / nr=0 / decimate=0 / interlaced=0 / bluray_compat=0 / constrained_intra=0 / bframes=8 / b_pyramid=2 / b_adapt=2 / b_bias=0 / direct=3 / weightb=1 / open_gop=0 / weightp=2 / keyint=250 / keyint_min=25 / scenecut=40 / intra_refresh=0 / rc=2pass / mbtree=0 / bitrate=1620 / ratetol=1.0 / qcomp=0.60 / qpmin=0 / qpmax=69 / qpstep=4 / cplxblur=20.0 / qblur=0.5 / ip_ratio=1.40 / pb_ratio=1.30 / aq=1:1.00
Default : Да
Forced : Нет
Аудио
Идентификатор : 2
Формат : AC-3
Формат/Информация : Audio Coding 3
Идентификатор кодека : A_AC3
Продолжительность : 1 ч. 25 м.
Вид битрейта : Постоянный
Битрейт : 192 Кбит/сек
Каналы : 2 канала
Расположение каналов : Front: L R
Частота : 48,0 КГц
Частота кадров : 31,250 кадров/сек (1536 SPF)
Битовая глубина : 16 бит
Метод сжатия : С потерями
Размер потока : 118 Мбайт (11%)
Default : Да
Forced : Нет





   Похожие торренты   Торрент   Размер 
В этой теме нет новых непрочитанных сообщений. Тишина (1960) SATRip от New-Team

13 | 2

1.09 ГБ

В этой теме нет новых непрочитанных сообщений. Тишина (1960) DVB от AND03AND

16 | 1

1.5 ГБ

В этой теме нет новых непрочитанных сообщений. А у нас была тишина... (1950) SATRip от New-Team

3 | 1

1.19 ГБ

В этой теме нет новых непрочитанных сообщений. А у нас была тишина... (1950) SATRip от New-Team

7 | 2

744.93 МБ

В этой теме нет новых непрочитанных сообщений. А у нас была тишина... (1950) SATRip-AVC от New-Team

14 | 1

1.09 ГБ

В этой теме нет новых непрочитанных сообщений. Чудотворная (1960) SATRip от New-Team

5 | 0

1.09 ГБ

В этой теме нет новых непрочитанных сообщений. Чудотворная (1960) SATRip-AVC от New-Team

8 | 1

1.09 ГБ




Вы не можете начинать темы
Вы не можете отвечать на сообщения
Вы не можете редактировать свои сообщения
Вы не можете удалять свои сообщения
Вы не можете добавлять вложения

Перейти:  
 Вход
ppkBB3cker v.2 © 2008-2014 @ PPK
[ Time : 0.031s | 16 Queries | GZIP : Off ]

cron