img image001 image001 image001 image001 image001 image001 image001 image001 image001 image001 image001 image001 image001 image001 image001 image001

Planets Sun Sun Sun
Статистика раздачи
Автор: Снежана | Размер: 1.47 ГБ | Добавлен: 26 июн 2018
Раздают: 48    Качают: 8
Скачать торрент
Скачать торрент
Описание торрента

СообщениеДобавлено: 26 июн 2018 

По данным уголовного розыска...

Страна: СССР
Жанр: Приключения
Год выпуска: 1979
Продолжительность: 01:09:31
Перевод: Не требуется
Режиссер: Валерий Михайловский
В ролях: Леонид Неведомский, Александр Соловьев, Алексей Эйбоженко, Геннадий Крынкин, Алексей Михайлов, Георгий Штиль, Николай Скоробогатов, Николай Буров, Юрий Назаров, Александр Хочинский, Виктор Проскурин, Владимир Кенигсон, Елена Шанина
Описание: В начале Великой Отечественной войны была перехвачена автомашина с грузом минского ювелирторга. Все сопровождавшие груз были убиты. Абвер и СД собирались начать операцию по дезорганизации нашего тыла а для этого под именем одного из сотрудников ювелирторга был внедрен офицер Абвера...

Кодек: х264
Качество: DVDRip-AVC
Видео: MPEG-4 AVC, 694х536@988x536, 25 fps, 2800 Кбит/с
Аудио: АС3, 2 сh, 224 Кбит/с
Субтитры: Нет
Главы: Есть

x264 [info]: frame I:559 Avg QP:16.78 size: 68549
x264 [info]: frame P:23536 Avg QP:19.16 size: 32614
x264 [info]: frame B:80183 Avg QP:20.92 size: 8155
Общее
Уникальный идентификатор : 230774956257644844074470418335312773974 (0xAD9DA3CE54F8D44B8E23DD95128E0356)
Полное имя : I:СССРПо данным уголовного розыска 1979_DVDRip-AVC_KORSAR.mkv
Формат : Matroska
Версия формата : Version 2
Размер файла : 1,47 Гбайт
Продолжительность : 1 ч. 9 м.
Общий поток : 3026 Кбит/сек
Дата кодирования : UTC 2018-06-06 21:52:24
Программа кодирования : mkvmerge v5.8.0 ('No Sleep / Pillow') built on Sep 2 2012 15:37:04
Библиотека кодирования : libebml v1.2.3 + libmatroska v1.3.0
Видео
Идентификатор : 1
Формат : AVC
Формат/Информация : Advanced Video Codec
Профиль формата : High@L4.1
Настройки формата : CABAC / 15 Ref Frames
Параметр CABAC формата : Да
Параметр RefFrames формата : 15 кадров
Идентификатор кодека : V_MPEG4/ISO/AVC
Продолжительность : 1 ч. 9 м.
Битрейт : 2800 Кбит/сек
Ширина : 694 пикселя
Высота : 536 пикселей
Соотношение сторон : 1,85:1
Режим частоты кадров : Постоянный
Частота кадров : 25,000 кадров/сек
Цветовое пространство : YUV
Субдискретизация насыщенности : 4:2:0
Битовая глубина : 8 бит
Тип развёртки : Прогрессивная
Бит/(Пиксели*Кадры) : 0.301
Размер потока : 1,33 Гбайт (91%)
Библиотека кодирования : x264 core 152 r2851kMod ba24899
Настройки программы : cabac=1 / ref=15 / deblock=1:-2:-2 / analyse=0x3:0x133 / me=umh / subme=11 / psy=1 / fade_compensate=0.00 / psy_rd=1.05:0.12 / mixed_ref=1 / me_range=48 / chroma_me=1 / trellis=2 / 8x8dct=1 / cqm=0 / deadzone=21,11 / fast_pskip=0 / chroma_qp_offset=-3 / threads=12 / lookahead_threads=3 / sliced_threads=0 / nr=0 / decimate=0 / interlaced=0 / bluray_compat=0 / constrained_intra=0 / bframes=13 / b_pyramid=2 / b_adapt=2 / b_bias=0 / direct=3 / weightb=1 / open_gop=0 / weightp=2 / keyint=250 / keyint_min=25 / scenecut=40 / intra_refresh=0 / rc_lookahead=40 / rc=2pass / mbtree=0 / bitrate=2800 / ratetol=1.0 / qcomp=0.60 / qpmin=0 / qpmax=39 / qpstep=4 / cplxblur=20.0 / qblur=0.5 / vbv_maxrate=50000 / vbv_bufsize=62500 / nal_hrd=none / filler=0 / ip_ratio=1.15 / pb_ratio=1.30 / aq=1:1.00
Язык : English
Default : Да
Forced : Нет
Цветовой диапазон : Limited
Основные цвета : BT.601 PAL
Характеристики трансфера : BT.470 System B, BT.470 System G
Коэффициенты матрицы : BT.470 System B, BT.470 System G
Аудио
Идентификатор : 2
Формат : AC-3
Формат/Информация : Audio Coding 3
Параметр Endianness формата : Big
Идентификатор кодека : A_AC3
Продолжительность : 1 ч. 9 м.
Вид битрейта : Постоянный
Битрейт : 224 Кбит/сек
Каналы : 2 канала
Расположение каналов : Front: L R
Частота : 48,0 КГц
Частота кадров : 31,250 кадров/сек (1536 SPF)
Битовая глубина : 16 бит
Метод сжатия : С потерями
Размер потока : 111 Мбайт (7%)
Язык : Russian
Default : Да
Forced : Нет
Меню
00:00:00.000 : en:Chapter 1
00:04:18.080 : en:Chapter 2
00:09:37.160 : en:Chapter 3
00:14:53.080 : en:Chapter 4
00:20:06.360 : en:Chapter 5
00:24:58.040 : en:Chapter 6
00:30:47.000 : en:Chapter 7
00:36:52.240 : en:Chapter 8
00:45:31.000 : en:Chapter 9
00:51:02.200 : en:Chapter 10
00:57:52.920 : en:Chapter 11
01:06:46.040 : en:Chapter 12
01:09:30.320 : en:Chapter 13






   Похожие торренты   Торрент   Размер 
В этой теме нет новых непрочитанных сообщений. По данным уголовного розыска... (1979) DVDRip-AVC

115 | 19

1.43 ГБ

В этой теме нет новых непрочитанных сообщений. По данным уголовного розыска... (1979) DVDRip от New-Team

33 | 11

745.13 МБ

В этой теме нет новых непрочитанных сообщений. По данным уголовного розыска... (1979) DVDRip-AVC от New-Team

37 | 2

744.22 МБ

В этой теме нет новых непрочитанных сообщений. Из жизни начальника уголовного розыска (1983) DVDRip-AVC от New-Team

6 | 5

1.46 ГБ

В этой теме нет новых непрочитанных сообщений. Из жизни начальника уголовного розыска (1983) DVDRip от New-Team

1 | 10

744.09 МБ

В этой теме нет новых непрочитанных сообщений. Из жизни начальника уголовного розыска (1983) DVDRip от New-Team

335 | 7

1.46 ГБ

В этой теме нет новых непрочитанных сообщений. Очень синяя борода (1979) DVDRip-AVC от KORSAR

32 | 0

422.55 МБ




Вы не можете начинать темы
Вы не можете отвечать на сообщения
Вы не можете редактировать свои сообщения
Вы не можете удалять свои сообщения
Вы не можете добавлять вложения

Перейти:  
 Вход
ppkBB3cker v.2 © 2008-2014 @ PPK
[ Time : 0.016s | 15 Queries | GZIP : Off ]

cron