img image001 image001 image001 image001 image001 image001 image001 image001 image001 image001 image001 image001 image001 image001 image001 image001

Planets Sun Sun Sun
Статистика раздачи
Автор: Снежана | Размер: 4.55 ГБ | Добавлен: 26 июн 2018
Раздают: 42    Качают: 4
Скачать торрент
Скачать торрент
Описание торрента

СообщениеДобавлено: 26 июн 2018 

Информация о фильме
Название: Тетя Маша
Год выпуска: 2018
Страна: Россия
Жанр: мелодрама

Перевод: Не требуется [Русский]
Продолжительность: 01:30:05

Режиссер: Александр Грабарь
В ролях: Алла Юганова, Александр Константинов, Мария Пирогова, Софья Кравчук, Леонид Улащенко, Ольга Бранкевич, Татьяна Гаркуша, Алеся Пуховая


Описание:
Молодая семья нанимает няню для своей дочки. Они даже не подозревают, что тётя Маша, появившаяся в их доме, страдает душевной болезнью и искренне уверена, что девочка - ее родная дочь...

Качество: HDTV 1080p
Формат: MKV
Видео: AVC, 1920x1080 (16:9), 7050 kbps, 25 fps, 0,136 bpp
Аудио: AC3 / 2.0 / 48 kHz / 192 kbps /


Релиз от:


General
Unique ID : 173867946708270478355146203778619442536 (0x82CDBF9D446C5896BCFF05869DDA8568)
Complete name : E:запись с твTyotya masha.2018.HDTV 1080p.by.White Smoke.R.G.Generalfilm.mkv
Format : Matroska
Format version : Version 2
File size : 4.55 GiB
Duration : 1 h 30 min
Overall bit rate mode : Constant
Overall bit rate : 7 229 kb/s
Movie name : Tyotya masha.2018.HDTV 1080p.by.White Smoke.R.G.Generalfilm.mkv
Encoded date : UTC 2018-06-20 11:07:22
Writing application : mkvmerge v7.6.0 ('Garden of Dreams') 32bit built on Feb 11 2015 00:18:47
Writing library : libebml v1.3.1 + libmatroska v1.4.2
Video
ID : 1
Format : AVC
Format/Info : Advanced Video Codec
Format profile : High@L4.1
Format settings, CABAC : Yes
Format settings, ReFrames : 3 frames
Format settings, GOP : M=3, N=33
Codec ID : V_MPEG4/ISO/AVC
Duration : 1 h 30 min
Bit rate mode : Constant
Bit rate : 7 051 kb/s
Width : 1 920 pixels
Height : 1 080 pixels
Display aspect ratio : 16:9
Frame rate mode : Constant
Frame rate : 25.000 FPS
Standard : PAL
Color space : YUV
Chroma subsampling : 4:2:0
Bit depth : 8 bits
Scan type : Progressive
Bits/(Pixel*Frame) : 0.136
Stream size : 4.34 GiB (95%)
Default : Yes
Forced : No
Color range : Limited
Color primaries : BT.709
Transfer characteristics : BT.709
Matrix coefficients : BT.709
Audio
ID : 2
Format : AC-3
Format/Info : Audio Coding 3
Mode extension : CM (complete main)
Format settings, Endianness : Big
Codec ID : A_AC3
Duration : 1 h 30 min
Bit rate mode : Constant
Bit rate : 192 kb/s
Channel(s) : 2 channels
Channel positions : Front: L R
Sampling rate : 48.0 kHz
Frame rate : 31.250 FPS (1536 spf)
Compression mode : Lossy
Stream size : 124 MiB (3%)
Default : Yes
Forced : No






   Похожие торренты   Торрент   Размер 
В этой теме нет новых непрочитанных сообщений. Тетя Маша (2018) HDTVRip от GeneralFilm

131 | 10

1.09 ГБ

В этой теме нет новых непрочитанных сообщений. Тетя Маша (2018) HDTVRip-AVC от Files-x

107 | 8

1.37 ГБ

В этой теме нет новых непрочитанных сообщений. Тетя Маша (2018) WEB-DLRip от Files-x

210 | 22

1.37 ГБ

В этой теме нет новых непрочитанных сообщений. Тетя Маша (2018) HDTVRip 720p от MediaClub

31 | 6

2.64 ГБ

В этой теме нет новых непрочитанных сообщений. Маша и медведь: Вот такой хоккей [71] (2018) WEB-DL 1080p

236 | 15

205.58 МБ

В этой теме нет новых непрочитанных сообщений. Ирина Пегова. В роли счастливой женщины (2018) HDTV 1080p от Generalfilm

0 | 0

2.32 ГБ

В этой теме нет новых непрочитанных сообщений. Discovery. Взрывая историю / Blowing up History [03x01-02] (2018) HDTV 1080p от GeneralFilm | P2

0 | 0

4.68 ГБ




Вы не можете начинать темы
Вы не можете отвечать на сообщения
Вы не можете редактировать свои сообщения
Вы не можете удалять свои сообщения
Вы не можете добавлять вложения

Перейти:  
 Вход
ppkBB3cker v.2 © 2008-2014 @ PPK
[ Time : 0.030s | 19 Queries | GZIP : Off ]

cron