img image001 image001 image001 image001 image001 image001 image001 image001 image001 image001 image001 image001 image001 image001 image001 image001

Planets Sun Sun Sun
Статистика раздачи
Автор: Снежана | Размер: 1.09 ГБ | Добавлен: 26 июн 2018
Раздают: 0    Качают: 8
Скачать торрент
Скачать торрент
Описание торрента

СообщениеДобавлено: 26 июн 2018 

Страна: СССР
Производство: Мосфильм
Жанр: драма, комедия
Год выпуска: 1960
Продолжительность: 01:15:21
Перевод: Не требуется
Cубтитры: нет
Оригинальная аудиодорожка: русский
Режиссер: Леонид Гайдай
В ролях:
Алла Ларионова, Георгий Куликов, Наталья Медведева, Всеволод Санаев, Константин Сорокин, Николай Боголюбов, Надежда Румянцева, Нина Гребешкова, Николай Погодин, Геннадий Павлов, Владислав Баландин, Владимир Лебедев, В. Шиханов, Ольга Наровчатова, Н. Мисик, Алексей Крыченков...
Об актёрах подробней
Описание:
Возле маленького приволжского городка стоит на мертвом якоре "Орленок" - вышедший из строя буксир. У него славная история. В 1919 году комсомольцы отправлялись на "Орленке" бить белых, а в дни Отечественной войны комсомольцы нового поколения перевозили на нем детей и раненых бойцов из героического Сталинграда. Теперь пароходиком завладели ребята. Они бережно собрали здесь все, что рассказывало об истории "Орленка", совершали на нем воображаемые путешествия.





Источник: DVD5 R5
Качество видео: DVDRip
Формат видео: AVI
Видео: 704x528 (4:3), 25,000 кадров/сек, XviD ~ 1870 kbps avg, 0.201 bit/pixel
Аудио: 48 kHz, Dolby Digital AC3 2.0, 192 kbps
Раздача от:
Общее
Полное имя : Trizhdy.voskresshiy.1960.DVDRip_[New-team]_by_AVP_Studio.avi
Формат : AVI
Формат/Информация : Audio Video Interleave
Размер файла : 1,09 Гбайт
Продолжительность : 1 ч. 15 м.
Общий поток : 2072 Кбит/сек
Программа кодирования : VirtualDubMod 1.5.10.3 | www.virtualdub-fr.org || (build 2550/release)
Библиотека кодирования : VirtualDubMod build 2550/release
Видео
Идентификатор : 0
Формат : MPEG-4 Visual
Профиль формата : Advanced Simple@L5
Настройки формата : BVOP1 / Custom Matrix
Параметр BVOP формата : 1
Параметр QPel формата : Нет
Параметр GMC формата : Без точки перехода
Параметр матрицы формата : Выборочная
Идентификатор кодека : XVID
Идентификатор кодека/Подсказка : XviD
Продолжительность : 1 ч. 15 м.
Битрейт : 1870 Кбит/сек
Ширина : 704 пикселя
Высота : 528 пикселей
Соотношение сторон : 4:3
Частота кадров : 25,000 кадров/сек
Цветовое пространство : YUV
Субдискретизация насыщенности : 4:2:0
Битовая глубина : 8 бит
Тип развёртки : Прогрессивная
Метод сжатия : С потерями
Бит/(Пиксели*Кадры) : 0.201
Размер потока : 1008 Мбайт (90%)
Библиотека кодирования : XviD 73
Аудио
Идентификатор : 1
Формат : AC-3
Формат/Информация : Audio Coding 3
Идентификатор кодека : 2000
Продолжительность : 1 ч. 15 м.
Вид битрейта : Постоянный
Битрейт : 192 Кбит/сек
Каналы : 2 канала
Расположение каналов : Front: L R
Частота : 48,0 КГц
Частота кадров : 31,250 кадров/сек (1536 SPF)
Битовая глубина : 16 бит
Метод сжатия : С потерями
Размер потока : 103 Мбайт (9%)
Выравнивание : Разделение по промежуткам
Продолжительность промежутка : 40 мс. (1,00 видеокадр)
Время предзагрузки промежутка : 500 мс





   Похожие торренты   Торрент   Размер 
В этой теме нет новых непрочитанных сообщений. Трижды воскресший (1960) DVDRip-AVC от New-Team

38 | 4

1.09 ГБ

В этой теме нет новых непрочитанных сообщений. Трижды воскресший (1960) DVDRip

6 | 9

1.19 ГБ

В этой теме нет новых непрочитанных сообщений. Воскресший / Воскресший из мёртвых / The Resurrected (1992) HDTV 1080i | P, L1

4 | 5

18.89 ГБ

В этой теме нет новых непрочитанных сообщений. Киевлянка (1958-1960) DVDRip-AVC от New-Team

22 | 0

2.18 ГБ

В этой теме нет новых непрочитанных сообщений. Первые испытания (1960) DVDRip-AVC от New-Team

16 | 0

2.18 ГБ

В этой теме нет новых непрочитанных сообщений. Киевлянка (1958-1960) DVDRip от New-Team

5 | 1

2.18 ГБ

В этой теме нет новых непрочитанных сообщений. Первые испытания (1960) DVDRip от New-Team

0 | 4

2.18 ГБ




Вы не можете начинать темы
Вы не можете отвечать на сообщения
Вы не можете редактировать свои сообщения
Вы не можете удалять свои сообщения
Вы не можете добавлять вложения

Перейти:  
 Вход
ppkBB3cker v.2 © 2008-2014 @ PPK
[ Time : 0.034s | 18 Queries | GZIP : Off ]

cron