img image001 image001 image001 image001 image001 image001 image001 image001 image001 image001 image001 image001 image001 image001 image001 image001

Planets Sun Sun Sun
Статистика раздачи
Автор: Снежана | Размер: 13.84 ГБ | Добавлен: 26 июн 2018
Раздают: 31    Качают: 10
Скачать торрент
Скачать торрент
Описание торрента

СообщениеДобавлено: 26 июн 2018 

Информация о фильме
Название: Большая перемена
Год выхода: 1973
Жанр: Лирическая комедия
Режиссер: Алексей Коренев
В ролях: Михаил Кононов, Евгений Леонов, Ролан Быков, Александр Збруев, Светлана Крючкова, Юрий Кузьменков, Наталия Богунова, Савелий Крамаров, Наталья Гвоздикова, Виктор Проскурин, Валерий Носик, Нина Маслова, Людмила Касаткина, Валентина Талызина, Анастасия Георгиевская, Валерий Хлевинский, Ирен Азер, Инна Жилина, Людмила Анциферова, Валентина Кузнецова, Михаил Яншин, Валентина Сперантова, Люсьена Овчинникова, Лев Дуров
О фильме:
Блистательная комедия, сделавшая звездами многих из участников картины. Молодой подающий надежды аспирант-историк, провалив экзамены и поссорившись со своей невестой, бросает науку и идет работать в вечернюю школу. Его ученики - взрослые люди, отягощенные проблемами, семейными отношениями, недоразумениями и... школьными уроками. Нестор Петрович начинает жить заботами своих учеников, что приводит к большим переменам в судьбах всех героев...

Страна: СССР, Мосфильм
Продолжительность: 4 х ~ 01:03:00
Перевод: не требуется
Файл
Формат: MKV
Кодек: MPEG2
Качество: DVD-Remux
Видео: 7 000 kb/s, 720x576, 4:3, 25fps
Звук:
#1: AC3, 48000Hz, 6ch, 448kbps
#2: AC3, 48000Hz, mono, 224kbps
Субтитры: нет
General
Unique ID : 133237386005294533733040082327519720846 (0x643C964EEF47BABCB60BD4E6D809758E)
Complete name : D:Bolshaya peremena.1973.DVD-Remux.Polnaya restavraciya1 seriya.mkv
Format : Matroska
Format version : Version 2
File size : 3.39 GiB
Duration : 1 h 3 min
Overall bit rate mode : Constant
Overall bit rate : 7 678 kb/s
Encoded date : UTC 2018-06-22 14:40:27
Writing application : MakeMKV v1.12.2 win(x64-release)
Writing library : libmakemkv v1.12.2 (1.3.5/1.4.7) win(x64-release)
Video
ID : 1
ID in the original source medi : 224 (0xE0)
Format : MPEG Video
Format version : Version 2
Format profile : Main@Main
Format settings : CustomMatrix / BVOP
Format settings, BVOP : Yes
Format settings, Matrix : Custom
Format settings, GOP : M=3, N=15
Format settings, picture struc : Frame
Codec ID : V_MPEG2
Codec ID/Info : MPEG 1 or 2 Video
Duration : 1 h 3 min
Bit rate mode : Constant
Bit rate : 7 000 kb/s
Width : 720 pixels
Height : 576 pixels
Display aspect ratio : 4:3
Frame rate mode : Constant
Frame rate : 25.000 FPS
Standard : PAL
Color space : YUV
Chroma subsampling : 4:2:0
Bit depth : 8 bits
Scan type : Interlaced
Compression mode : Lossy
Bits/(Pixel*Frame) : 0.675
Time code of first frame : 00:00:00:01
Time code source : Group of pictures header
Stream size : 3.09 GiB (91%)
Language : English
Default : No
Forced : No
Original source medium : DVD-Video
Audio #1
ID : 2
ID in the original source medi : 189 (0xBD)128 (0x80)
Format : AC-3
Format/Info : Audio Coding 3
Codec ID : A_AC3
Duration : 1 h 3 min
Bit rate mode : Constant
Bit rate : 448 kb/s
Channel(s) : 6 channels
Channel positions : Front: L C R, Side: L R, LFE
Sampling rate : 48.0 kHz
Frame rate : 31.250 FPS (1536 SPF)
Bit depth : 16 bits
Compression mode : Lossy
Delay relative to video : 275 ms
Stream size : 202 MiB (6%)
Title : Surround 5.1
Language : Russian
Service kind : Complete Main
Default : Yes
Forced : No
Original source medium : DVD-Video
Audio #2
ID : 3
ID in the original source medi : 189 (0xBD)129 (0x81)
Format : AC-3
Format/Info : Audio Coding 3
Codec ID : A_AC3
Duration : 1 h 3 min
Bit rate mode : Constant
Bit rate : 224 kb/s
Channel(s) : 1 channel
Channel positions : Front: C
Sampling rate : 48.0 kHz
Frame rate : 31.250 FPS (1536 SPF)
Bit depth : 16 bits
Compression mode : Lossy
Delay relative to video : 275 ms
Stream size : 101 MiB (3%)
Title : Mono
Language : Russian
Service kind : Complete Main
Default : No
Forced : No
Original source medium : DVD-Video
Menu
00:00:00.080 : en:Chapter 01
00:04:30.320 : en:Chapter 02
00:08:39.240 : en:Chapter 03
00:13:00.080 : en:Chapter 04
00:20:29.680 : en:Chapter 05
00:24:54.080 : en:Chapter 06
00:36:40.880 : en:Chapter 07
00:49:16.280 : en:Chapter 08
00:54:49.160 : en:Chapter 09
00:59:33.880 : en:Chapter 10



   Похожие торренты   Торрент   Размер 
В этой теме нет новых непрочитанных сообщений. Большая перемена (1973) DVDRip от GeneralFilm | Полная реставрация

76 | 14

4.35 ГБ

В этой теме нет новых непрочитанных сообщений. Большая перемена (1973) DVDRip-AVC от ExKinoRay

437 | 71

4.57 ГБ

В этой теме нет новых непрочитанных сообщений. Щит и меч (1968) DVDRip-AVC | Полная реставрация

180 | 16

4.72 ГБ

В этой теме нет новых непрочитанных сообщений. Гений (1991) DVDRip | Полная реставрация

181 | 34

1.46 ГБ

В этой теме нет новых непрочитанных сообщений. Остров сокровищ (1988) DVDRip-AVC | КП, Полная реставрация

414 | 29

2.11 ГБ

В этой теме нет новых непрочитанных сообщений. Остров сокровищ (1988) DVDRip | Полная реставрация

304 | 7

2.05 ГБ

В этой теме нет новых непрочитанных сообщений. Солярис (1972) HDRip-AVC от Кинорадиомагия | Полная реставрация

718 | 17

2.73 ГБ




Вы не можете начинать темы
Вы не можете отвечать на сообщения
Вы не можете редактировать свои сообщения
Вы не можете удалять свои сообщения
Вы не можете добавлять вложения

Перейти:  
 Вход
ppkBB3cker v.2 © 2008-2014 @ PPK
[ Time : 0.030s | 16 Queries | GZIP : Off ]

cron