img image001 image001 image001 image001 image001 image001 image001 image001 image001 image001 image001 image001 image001 image001 image001 image001

Planets Sun Sun Sun
Статистика раздачи
Автор: Снежана | Размер: 1.09 ГБ | Добавлен: 26 июн 2018
Раздают: 94    Качают: 16
Скачать торрент
Скачать торрент
Описание торрента

СообщениеДобавлено: 26 июн 2018 

Информация о фильме
Название: Смотри в оба!
Год выпуска: 1981
Жанр: Драма, комедия, приключения, военный
Режиссёр: Эльдор Уразбаев
В ролях: Борислав Брондуков, Фёдор Сухов, Светлана Орлова, Нина Алисова, Алексей Серебряков, Александр Яковлев, Виктор Ильичёв, Юрий Дубровин
Описание: Сюжет разворачивается в 1921 году, в конце Гражданской войны. Молодой комсомолец Алексей Команов получает задание Революционного комитета отправить на буксире тёплые вещи в Петроград для детской коммуны. Команову дают в помощники некоего Лыкина, отрекомендовавшегося механиком, так как необходимо было наладить барахливший мотор речного буксира. «Смотри за этим фруктом в оба!» — сказал представитель ревкома Команову, давая понять, что необходимо присматривать за этим пронырливым, бойким на язык мужичонкой. Во время движения к буксиру Команов и Лыкин сталкиваются с бандитами, и вступают с ними в борьбу.

Страна: СССР
Производство: Киностудия им. Горького
Продолжительность: 01:13:16
Перевод: Не требуется
Файл
Кодек: х264
Качество: SATRip-AVC
Видео: MPEG-4 AVC, 704x368@750x368, 25.000 fps, 1827 Кбит/с
Аудио: AC3, 2 ch, 256 Кбит/с
Субтитры: Нет
Релиз от:

x264 [info]: frame I:683 Avg QP:17.18 size: 50252
x264 [info]: frame P:34978 Avg QP:18.67 size: 20564
x264 [info]: frame B:74259 Avg QP:21.65 size: 3675
x264 [info]: consecutive B-frames: 8.8% 8.9% 16.7% 23.9% 22.0% 18.1% 1.2% 0.3% 0.1% 0.0%
==================================================================
Общее
Уникальный идентификатор : 203943361968647044465600106691690682751 (0x996E10122EB54F71A84F89EA00B2D97F)
Полное имя : Смотри в оба_1981-SATRip-AVC_KORSAR.mkv
Формат : Matroska
Версия формата : Version 2
Размер файла : 1,09 Гбайт
Продолжительность : 1 ч. 13 м.
Общий поток : 2126 Кбит/сек
Дата кодирования : UTC 2018-06-21 02:13:13
Программа кодирования : mkvmerge v5.8.0 ('No Sleep / Pillow') built on Sep 2 2012 15:37:04
Библиотека кодирования : libebml v1.2.3 + libmatroska v1.3.0
Видео
Идентификатор : 1
Формат : AVC
Формат/Информация : Advanced Video Codec
Профиль формата : High@L4.1
Параметр CABAC формата : Да
Параметр RefFrames формата : 13 кадров
Идентификатор кодека : V_MPEG4/ISO/AVC
Продолжительность : 1 ч. 13 м.
Битрейт : 1827 Кбит/сек
Ширина : 704 пикселя
Высота : 368 пикселей
Соотношение сторон : 2,038
Соотношение сторон в оригинале : 2,041
Режим частоты кадров : Постоянный
Частота кадров : 25,000 кадров/сек
Цветовое пространство : YUV
Субдискретизация насыщенности : 4:2:0
Битовая глубина : 8 бит
Тип развёртки : Прогрессивная
Бит/(Пиксели*Кадры) : 0.282
Размер потока : 958 Мбайт (86%)
Библиотека кодирования : x264 core 152 r2851kMod ba24899
Настройки программы : cabac=1 / ref=13 / deblock=1:-2:-1 / analyse=0x3:0x133 / me=umh / subme=10 / psy=1 / fade_compensate=0.00 / psy_rd=1.05:0.10 / mixed_ref=1 / me_range=32 / chroma_me=1 / trellis=2 / 8x8dct=1 / cqm=0 / deadzone=21,11 / fast_pskip=1 / chroma_qp_offset=-3 / threads=11 / lookahead_threads=1 / sliced_threads=0 / nr=0 / decimate=1 / interlaced=0 / bluray_compat=0 / constrained_intra=0 / bframes=9 / b_pyramid=2 / b_adapt=2 / b_bias=0 / direct=1 / weightb=1 / open_gop=0 / weightp=2 / keyint=250 / keyint_min=25 / scenecut=40 / intra_refresh=0 / rc=crf / mbtree=0 / crf=17.5000 / qcomp=0.63 / qpmin=0 / qpmax=39 / qpstep=4 / ip_ratio=1.40 / pb_ratio=1.30 / aq=1:1.00
Язык : English
Default : Да
Forced : Нет
Цветовой диапазон : Limited
Основные цвета : BT.601 PAL
Характеристики трансфера : BT.470 System B, BT.470 System G
Коэффициенты матрицы : BT.601
Аудио
Идентификатор : 2
Формат : AC-3
Формат/Информация : Audio Coding 3
Параметр Endianness формата : Big
Идентификатор кодека : A_AC3
Продолжительность : 1 ч. 13 м.
Вид битрейта : Постоянный
Битрейт : 256 Кбит/сек
Каналы : 2 канала
Расположение каналов : Front: L R
Частота : 48,0 КГц
Частота кадров : 31,250 кадров/сек (1536 SPF)
Битовая глубина : 16 бит
Метод сжатия : С потерями
Размер потока : 134 Мбайт (12%)
Язык : Russian
Default : Да
Forced : Нет



   Похожие торренты   Торрент   Размер 
В этой теме нет новых непрочитанных сообщений. Иди и смотри (1985) BDRip-720p от KORSAR | JPN Transfer

0 | 0

10.73 ГБ

В этой теме нет новых непрочитанных сообщений. Душа (1981) DVDRip-AVC от KORSAR

3 | 0

1.89 ГБ

В этой теме нет новых непрочитанных сообщений. Мужики!... (1981) WEB-DLRip-AVC от KORSAR

17 | 0

3.53 ГБ

В этой теме нет новых непрочитанных сообщений. Знахарь / Znachor (1981) DVDRip-AVC от KORSAR | D

102 | 15

2.93 ГБ

В этой теме нет новых непрочитанных сообщений. Бесконечная любовь / Endless Love (1981) WEB-DLRip 720p от KORSAR | P

6 | 2

6.75 ГБ

В этой теме нет новых непрочитанных сообщений. Тяжелый металл / Heavy Metal (1981) BDRip 720р от KORSAR | D, P, А

58 | 1

5.66 ГБ

В этой теме нет новых непрочитанных сообщений. Смотри в свою тарелку / Danger on your plate [01-05] (2010) SATRip-AVC | P1

6 | 2

418.17 МБ




Вы не можете начинать темы
Вы не можете отвечать на сообщения
Вы не можете редактировать свои сообщения
Вы не можете удалять свои сообщения
Вы не можете добавлять вложения

Перейти:  
 Вход
ppkBB3cker v.2 © 2008-2014 @ PPK
[ Time : 0.024s | 15 Queries | GZIP : Off ]

cron