img image001 image001 image001 image001 image001 image001 image001 image001 image001 image001 image001 image001 image001 image001 image001 image001

Planets Sun Sun Sun
Статистика раздачи
Автор: Снежана | Размер: 142.9 МБ | Добавлен: 26 июн 2018
Раздают: 68    Качают: 6
Скачать торрент
Скачать торрент
Описание торрента

СообщениеДобавлено: 26 июн 2018 

Информация о фильме
Название: Дедлайн
Год выхода: 2018
Жанр: короткометражка, драма
Режиссер: Герман Полозов
В ролях: Евгений Баханов, Антон Тимофеев, Александр Рубан, Слава Гардер, Екатерина Марсальская, Дамир Миркамилов, Екатерина Клат, Николай Мурыгин
О фильме: История популярного блогера, который делает серию журналистских расследований, стремясь ответить на сложный моральный вопрос — когда человек становится преступником? Когда совершил преступление или когда был за него осужден?

Страна: Россия
Студия: AG Films
Продолжительность: 00:20:36
Перевод: Не Требуется
Субтитры: Нет
Файл
Кодек: XviD
Качество: HDRip
Видео: 720x304 (2.37:1), 25 fps, XviD build 73 ~831 kbps avg, 0.15 bit/pixel
Звук: 48 kHz, MPEG Layer 3, 2 ch, ~128.00 kbps avg
General
Complete name : Deadline.2018.HDRip.ot.Portablius.avi
Format : AVI
Format/Info : Audio Video Interleave
File size : 143 MiB
Duration : 20 min 36 s
Overall bit rate : 970 kb/s
Writing application : VirtualDubMod 1.5.10.3 | www.virtualdub-fr.org || (build 2550/release)
Writing library : VirtualDubMod build 2550/release
Video
ID : 0
Format : MPEG-4 Visual
Format profile : Advanced Simple@L5
Format settings, BVOP : 1
Format settings, QPel : No
Format settings, GMC : No warppoints
Format settings, Matrix : Custom
Codec ID : XVID
Codec ID/Hint : XviD
Duration : 20 min 36 s
Bit rate : 832 kb/s
Width : 720 pixels
Height : 304 pixels
Display aspect ratio : 2.35:1
Frame rate : 25.000 FPS
Color space : YUV
Chroma subsampling : 4:2:0
Bit depth : 8 bits
Scan type : Progressive
Compression mode : Lossy
Bits/(Pixel*Frame) : 0.152
Stream size : 123 MiB (86%)
Writing library : XviD 73
Audio
ID : 1
Format : MPEG Audio
Format version : Version 1
Format profile : Layer 3
Codec ID : 55
Codec ID/Hint : MP3
Duration : 20 min 36 s
Bit rate mode : Constant
Bit rate : 128 kb/s
Channel(s) : 2 channels
Sampling rate : 48.0 kHz
Compression mode : Lossy
Stream size : 18.9 MiB (13%)
Alignment : Aligned on interleaves
Interleave, duration : 40 ms (1.00 video frame)
Interleave, preload duratio : 504 ms
Writing library : LAME3.99r
Encoding settings : -m s -V 4 -q 2 -lowpass 17 -b 128



   Похожие торренты   Торрент   Размер 
В этой теме нет новых непрочитанных сообщений. Дедлайн / Deadline (2009) ВDRip 720р | Р, Р2

83 | 20

3.98 ГБ

В этой теме нет новых непрочитанных сообщений. Акты насилия / Acts of Violence (2018) WEB-DLRip от Portablius | L

28 | 8

698.24 МБ

В этой теме нет новых непрочитанных сообщений. Бэтмен: Готэм в газовом свете / Batman: Gotham by Gaslight (2018) WEBRip от Portablius | Flarrow Films

22 | 9

697.62 МБ

В этой теме нет новых непрочитанных сообщений. БайБайМэн / The Bye Bye Man (2017) HDRip от Portablius | L1

27 | 12

697.61 МБ

В этой теме нет новых непрочитанных сообщений. Гол! / Goal! (2005) HDRip от Portablius | D

24 | 2

748.19 МБ

В этой теме нет новых непрочитанных сообщений. Всевидящее око / Eye in the Sky (2015) HDRip от Portablius | L

239 | 31

745.15 МБ

В этой теме нет новых непрочитанных сообщений. Бедуин (2011) HDRip от Portablius

0 | 0

745.14 МБ




Вы не можете начинать темы
Вы не можете отвечать на сообщения
Вы не можете редактировать свои сообщения
Вы не можете удалять свои сообщения
Вы не можете добавлять вложения

Перейти:  
 Вход
ppkBB3cker v.2 © 2008-2014 @ PPK
[ Time : 0.030s | 16 Queries | GZIP : Off ]

cron