img image001 image001 image001 image001 image001 image001 image001 image001 image001 image001 image001 image001 image001 image001 image001 image001

Planets Sun Sun Sun
Статистика раздачи
Автор: Снежана | Размер: 1.09 ГБ | Добавлен: 26 июн 2018
Раздают: 9    Качают: 0
Скачать торрент
Скачать торрент
Описание торрента

СообщениеДобавлено: 26 июн 2018 

Страна: СССР
Производство: Киностудия им. Горького
Жанр: военный
Год выпуска: 1960
Продолжительность: 01:35:33
Перевод: Не требуется
Cубтитры: нет
Оригинальная аудиодорожка: русский
Режиссер: Иван Лукинский
В ролях:
Владимир Костин, Владимир Кашпур, Тамара Витченко, Валентина Владимирова, Елизавета Кузюрина, Владимир Колокольцев, Владимир Златоустовский, Эрнест Мартиросов, Никифор Колофидин, Алексей Зубов, Георгий Куликов, Владимир Костарев, Евгений Новиков, Михаил Шаров...
Об актёрах подробней
Описание:
По роману Георгия Берёзко «Сильнее атома».
В подразделении десантников - одни первогодки. Заводила и общий любимец - Андрей Воронков. Командует солдатами немолодой старшина Елистратов (Владимир Кашпур), прозванный Додоном. Он кажется Андрею педантом, признающим только муштру. Отношения между Додоном и Воронковым напряжённые...





Исходник: S-VHS
Качество видео: VHSRip
Формат видео: AVI
Видео: 688x512 (4:3), 25,000 кадров/сек, XviD ~ 1432 kbps avg, 0.163 bit/pixel
Аудио: 48 kHz, Dolby Digital AC3 2.0, 192 kbps
Раздача от:
Общее
Полное имя : Pryzhok.na.zare.1960.VHSRip_[New-team]_by_AVP_Studio.avi
Формат : AVI
Формат/Информация : Audio Video Interleave
Размер файла : 1,09 Гбайт
Продолжительность : 1 ч. 35 м.
Общий поток : 1634 Кбит/сек
Программа кодирования : VirtualDubMod 1.5.10.3 | www.virtualdub-fr.org || (build 2550/release)
Библиотека кодирования : VirtualDubMod build 2550/release
Видео
Идентификатор : 0
Формат : MPEG-4 Visual
Профиль формата : Advanced Simple@L5
Настройки формата : BVOP1 / Custom Matrix
Параметр BVOP формата : 1
Параметр QPel формата : Нет
Параметр GMC формата : Без точки перехода
Параметр матрицы формата : Выборочная
Идентификатор кодека : XVID
Идентификатор кодека/Подсказка : XviD
Продолжительность : 1 ч. 35 м.
Битрейт : 1432 Кбит/сек
Ширина : 688 пикселей
Высота : 512 пикселей
Соотношение сторон : 4:3
Частота кадров : 25,000 кадров/сек
Цветовое пространство : YUV
Субдискретизация насыщенности : 4:2:0
Битовая глубина : 8 бит
Тип развёртки : Прогрессивная
Метод сжатия : С потерями
Бит/(Пиксели*Кадры) : 0.163
Размер потока : 979 Мбайт (88%)
Библиотека кодирования : XviD 73
Аудио
Идентификатор : 1
Формат : AC-3
Формат/Информация : Audio Coding 3
Идентификатор кодека : 2000
Продолжительность : 1 ч. 35 м.
Вид битрейта : Постоянный
Битрейт : 192 Кбит/сек
Каналы : 2 канала
Расположение каналов : Front: L R
Частота : 48,0 КГц
Частота кадров : 31,250 кадров/сек (1536 SPF)
Битовая глубина : 16 бит
Метод сжатия : С потерями
Размер потока : 131 Мбайт (12%)
Выравнивание : Разделение по промежуткам
Продолжительность промежутка : 40 мс. (1,00 видеокадр)
Время предзагрузки промежутка : 500 мс





   Похожие торренты   Торрент   Размер 
В этой теме нет новых непрочитанных сообщений. Прыжок на заре (1960) VHSRip-AVC от New-Team

20 | 3

1.09 ГБ

В этой теме нет новых непрочитанных сообщений. Заре навстречу (1959) VHSRip от New-Team

0 | 0

1.09 ГБ

В этой теме нет новых непрочитанных сообщений. Заре навстречу (1959) VHSRip-AVC от New-Team

1 | 0

1.09 ГБ

В этой теме нет новых непрочитанных сообщений. Заре навстречу (1959) VHSRip от New-Team

0 | 0

747.92 МБ

В этой теме нет новых непрочитанных сообщений. Айна (1960) VHSRip-AVC от New-Team

6 | 1

1.09 ГБ

В этой теме нет новых непрочитанных сообщений. Жил-был мошенник / There As A Crooked Man (1960) VHSRip | D

6 | 2

1.37 ГБ

В этой теме нет новых непрочитанных сообщений. Ночи Лукреции Борджиа / Le notti di Lucrezia Borgia (1960) VHSRip | P1

23 | 8

1.6 ГБ




Вы не можете начинать темы
Вы не можете отвечать на сообщения
Вы не можете редактировать свои сообщения
Вы не можете удалять свои сообщения
Вы не можете добавлять вложения

Перейти:  
 Вход
ppkBB3cker v.2 © 2008-2014 @ PPK
[ Time : 0.318s | 18 Queries | GZIP : Off ]

cron