img image001 image001 image001 image001 image001 image001 image001 image001 image001 image001 image001 image001 image001 image001 image001 image001

Planets Sun Sun Sun
Статистика раздачи
Автор: Снежана | Размер: 1.09 ГБ | Добавлен: 26 июн 2018
Раздают: 30    Качают: 3
Скачать торрент
Скачать торрент
Описание торрента

СообщениеДобавлено: 26 июн 2018 

Страна: СССР
Производство: Киностудия им. Горького
Жанр: военный
Год выпуска: 1960
Продолжительность: 01:35:33
Перевод: Не требуется
Cубтитры: нет
Оригинальная аудиодорожка: русский
Режиссер: Иван Лукинский
В ролях:
Владимир Костин, Владимир Кашпур, Тамара Витченко, Валентина Владимирова, Елизавета Кузюрина, Владимир Колокольцев, Владимир Златоустовский, Эрнест Мартиросов, Никифор Колофидин, Алексей Зубов, Георгий Куликов, Владимир Костарев, Евгений Новиков, Михаил Шаров...
Об актёрах подробней
Описание:
По роману Георгия Берёзко «Сильнее атома».
В подразделении десантников - одни первогодки. Заводила и общий любимец - Андрей Воронков. Командует солдатами немолодой старшина Елистратов (Владимир Кашпур), прозванный Додоном. Он кажется Андрею педантом, признающим только муштру. Отношения между Додоном и Воронковым напряжённые...





Исходник: S-VHS
Качество видео: VHSRip-AVC
Формат видео: MKV
Видео: 688->760x570 (4:3), 25,000 кадров/сек, H264 ~ 1437 kbps avg, 0.147 bit/pixel
Аудио: 48 kHz, Dolby Digital AC3 2.0, 192 kbps
Раздача от:
Общее
Полное имя : Pryzhok.na.zare.1960.VHSRip-AVC_[New-team]_by_AVP_Studio.mkv
Формат : Matroska
Версия формата : Version 2
Размер файла : 1,09 Гбайт
Продолжительность : 1 ч. 35 м.
Общий поток : 1631 Кбит/сек
Дата кодирования : UTC 2018-06-22 14:11:20
Программа кодирования : mkvmerge v6.1.0 ('Old Devil') built on Mar 4 2013 09:10:42
Библиотека кодирования : libebml v1.3.0 + libmatroska v1.4.0
Видео
Идентификатор : 1
Формат : AVC
Формат/Информация : Advanced Video Codec
Профиль формата : High@L4.1
Настройки формата : CABAC / 10 Ref Frames
Параметр CABAC формата : Да
Параметр RefFrames формата : 10 кадров
Идентификатор кодека : V_MPEG4/ISO/AVC
Продолжительность : 1 ч. 35 м.
Битрейт : 1437 Кбит/сек
Ширина : 688 пикселей
Высота : 570 пикселей
Соотношение сторон : 4:3
Режим частоты кадров : Постоянный
Частота кадров : 25,000 кадров/сек
Цветовое пространство : YUV
Субдискретизация насыщенности : 4:2:0
Битовая глубина : 8 бит
Тип развёртки : Прогрессивная
Бит/(Пиксели*Кадры) : 0.147
Размер потока : 961 Мбайт (86%)
Библиотека кодирования : x264 core 130 r2273 b3065e6
Настройки программы : cabac=1 / ref=10 / deblock=1:-2:-1 / analyse=0x3:0x113 / me=umh / subme=10 / psy=1 / psy_rd=1.00:0.00 / mixed_ref=1 / me_range=32 / chroma_me=1 / trellis=2 / 8x8dct=1 / cqm=0 / deadzone=21,11 / fast_pskip=1 / chroma_qp_offset=-2 / threads=6 / lookahead_threads=1 / sliced_threads=0 / nr=0 / decimate=0 / interlaced=0 / bluray_compat=0 / constrained_intra=0 / bframes=8 / b_pyramid=2 / b_adapt=2 / b_bias=0 / direct=3 / weightb=1 / open_gop=0 / weightp=2 / keyint=250 / keyint_min=25 / scenecut=40 / intra_refresh=0 / rc=2pass / mbtree=0 / bitrate=1437 / ratetol=1.0 / qcomp=0.60 / qpmin=0 / qpmax=69 / qpstep=4 / cplxblur=20.0 / qblur=0.5 / ip_ratio=1.40 / pb_ratio=1.30 / aq=1:1.00
Default : Да
Forced : Нет
Аудио
Идентификатор : 2
Формат : AC-3
Формат/Информация : Audio Coding 3
Идентификатор кодека : A_AC3
Продолжительность : 1 ч. 35 м.
Вид битрейта : Постоянный
Битрейт : 192 Кбит/сек
Каналы : 2 канала
Расположение каналов : Front: L R
Частота : 48,0 КГц
Частота кадров : 31,250 кадров/сек (1536 SPF)
Битовая глубина : 16 бит
Метод сжатия : С потерями
Размер потока : 131 Мбайт (12%)
Default : Да
Forced : Нет





   Похожие торренты   Торрент   Размер 
В этой теме нет новых непрочитанных сообщений. Прыжок на заре (1960) VHSRip от New-Team

6 | 0

1.09 ГБ

В этой теме нет новых непрочитанных сообщений. Заре навстречу (1959) VHSRip-AVC от New-Team

0 | 0

1.09 ГБ

В этой теме нет новых непрочитанных сообщений. Заре навстречу (1959) VHSRip от New-Team

0 | 0

747.92 МБ

В этой теме нет новых непрочитанных сообщений. Заре навстречу (1959) VHSRip от New-Team

0 | 0

1.09 ГБ

В этой теме нет новых непрочитанных сообщений. Айна (1960) VHSRip-AVC от New-Team

15 | 1

1.09 ГБ

В этой теме нет новых непрочитанных сообщений. Жил-был мошенник / There As A Crooked Man (1960) VHSRip | D

6 | 2

1.37 ГБ

В этой теме нет новых непрочитанных сообщений. Ночи Лукреции Борджиа / Le notti di Lucrezia Borgia (1960) VHSRip | P1

23 | 8

1.6 ГБ




Вы не можете начинать темы
Вы не можете отвечать на сообщения
Вы не можете редактировать свои сообщения
Вы не можете удалять свои сообщения
Вы не можете добавлять вложения

Перейти:  
 Вход
ppkBB3cker v.2 © 2008-2014 @ PPK
[ Time : 0.029s | 18 Queries | GZIP : Off ]

cron