img image001 image001 image001 image001 image001 image001 image001 image001 image001 image001 image001 image001 image001 image001 image001 image001

Planets Sun Sun Sun
Статистика раздачи
Автор: Снежана | Размер: 1.09 ГБ | Добавлен: 26 июн 2018
Раздают: 8    Качают: 4
Скачать торрент
Скачать торрент
Описание торрента

СообщениеДобавлено: 26 июн 2018 

Страна: СССР
Производство: Грузия-фильм, "Koliba" (Cловакия),
Жанр: мелодрама, военный
Год выпуска: 1960
Продолжительность: 01:38:23
Перевод: Не требуется
Cубтитры: нет
Оригинальная аудиодорожка: русский
Режиссер: Николай Санишвили
В ролях:
Юлиус Пантик, Лия Элиава, Верико Анджапаридзе, Додо Чичинадзе, Отар Коберидзе, Александр Омиадзе, Зураб Лаперадзе, Кароль Махата, Римма Шорохова, Мария Марковичова, Вацлав Млынек, Сергей Голованов, Гелена Зварикова, Войцех Загурский, Людовик Озабал, Вильям Полони, Иозеф Черный, Рудольф Бахлет, Душан Блашкович, Вильям Заборский, Владо Мюллер, Юлиус Вашек...
Об актёрах подробней
Описание:
Учителя из словацкой деревушки Мишо Звару отправили на войну. Среди гитлеровских полчищ, воеваших в Советском Союзе, была и словацкая дивизия. Но словаки не хотят поевать, каждый день они перебегают на советскую сторону. Когда Мишо и его друзей послали разведку, они тоже перешли к русским. Чтобы повидать раненного друга, учитель убегает из лагеря для ваоеннопленных. В это время фашистские самолёты начинают бомбить санитарный поезд. Мишо бросается к зенитному пулемёту и обстреливает немецкий самолёт.





Источник: DVD5 R5
Качество видео: DVDRip
Формат видео: AVI
Видео: 704x528 (4:3), 25,000 кадров/сек, XviD ~ 1384 kbps avg, 0.149 bit/pixel
Аудио: 48 kHz, Dolby Digital AC3 2.0, 192 kbps
Раздача от:
Общее
Полное имя : Prervannaya.pesnya.1960.DVDRip_[New-team]_by_AVP_Studio.avi
Формат : AVI
Формат/Информация : Audio Video Interleave
Размер файла : 1,09 Гбайт
Продолжительность : 1 ч. 38 м.
Общий поток : 1586 Кбит/сек
Программа кодирования : VirtualDubMod 1.5.10.3 | www.virtualdub-fr.org || (build 2550/release)
Библиотека кодирования : VirtualDubMod build 2550/release
Видео
Идентификатор : 0
Формат : MPEG-4 Visual
Профиль формата : Advanced Simple@L5
Настройки формата : BVOP1 / Custom Matrix
Параметр BVOP формата : 1
Параметр QPel формата : Нет
Параметр GMC формата : Без точки перехода
Параметр матрицы формата : Выборочная
Идентификатор кодека : XVID
Идентификатор кодека/Подсказка : XviD
Продолжительность : 1 ч. 38 м.
Битрейт : 1384 Кбит/сек
Ширина : 704 пикселя
Высота : 528 пикселей
Соотношение сторон : 4:3
Частота кадров : 25,000 кадров/сек
Цветовое пространство : YUV
Субдискретизация насыщенности : 4:2:0
Битовая глубина : 8 бит
Тип развёртки : Прогрессивная
Метод сжатия : С потерями
Бит/(Пиксели*Кадры) : 0.149
Размер потока : 974 Мбайт (87%)
Библиотека кодирования : XviD 73
Аудио
Идентификатор : 1
Формат : AC-3
Формат/Информация : Audio Coding 3
Идентификатор кодека : 2000
Продолжительность : 1 ч. 38 м.
Вид битрейта : Постоянный
Битрейт : 192 Кбит/сек
Каналы : 2 канала
Расположение каналов : Front: L R
Частота : 48,0 КГц
Частота кадров : 31,250 кадров/сек (1536 SPF)
Битовая глубина : 16 бит
Метод сжатия : С потерями
Размер потока : 135 Мбайт (12%)
Выравнивание : Разделение по промежуткам
Продолжительность промежутка : 40 мс. (1,00 видеокадр)
Время предзагрузки промежутка : 500 мс





   Похожие торренты   Торрент   Размер 
В этой теме нет новых непрочитанных сообщений. Прерванная песня (1960) DVDRip-AVC от New-Team

12 | 2

1.09 ГБ

В этой теме нет новых непрочитанных сообщений. Любимая песня (1955) DVDRip от New-Team

1 | 1

1.46 ГБ

В этой теме нет новых непрочитанных сообщений. Любимая песня (1955) DVDRip-AVC от New-Team

6 | 7

1.46 ГБ

В этой теме нет новых непрочитанных сообщений. Любимая песня (1955) DVDRip от New-Team

10 | 1

745.65 МБ

В этой теме нет новых непрочитанных сообщений. Трижды воскресший (1960) DVDRip от New-Team

7 | 7

1.09 ГБ

В этой теме нет новых непрочитанных сообщений. Киевлянка (1958-1960) DVDRip-AVC от New-Team

22 | 0

2.18 ГБ

В этой теме нет новых непрочитанных сообщений. Первые испытания (1960) DVDRip от New-Team

0 | 0

2.18 ГБ




Вы не можете начинать темы
Вы не можете отвечать на сообщения
Вы не можете редактировать свои сообщения
Вы не можете удалять свои сообщения
Вы не можете добавлять вложения

Перейти:  
 Вход
ppkBB3cker v.2 © 2008-2014 @ PPK
[ Time : 0.042s | 16 Queries | GZIP : Off ]

cron