img image001 image001 image001 image001 image001 image001 image001 image001 image001 image001 image001 image001 image001 image001 image001 image001

Planets Sun Sun Sun
Статистика раздачи
Автор: Снежана | Размер: 1.09 ГБ | Добавлен: 26 июн 2018
Раздают: 12    Качают: 2
Скачать торрент
Скачать торрент
Описание торрента

СообщениеДобавлено: 26 июн 2018 

Страна: СССР
Производство: Грузия-фильм, "Koliba" (Cловакия),
Жанр: мелодрама, военный
Год выпуска: 1960
Продолжительность: 01:38:23
Перевод: Не требуется
Cубтитры: нет
Оригинальная аудиодорожка: русский
Режиссер: Николай Санишвили
В ролях:
Юлиус Пантик, Лия Элиава, Верико Анджапаридзе, Додо Чичинадзе, Отар Коберидзе, Александр Омиадзе, Зураб Лаперадзе, Кароль Махата, Римма Шорохова, Мария Марковичова, Вацлав Млынек, Сергей Голованов, Гелена Зварикова, Войцех Загурский, Людовик Озабал, Вильям Полони, Иозеф Черный, Рудольф Бахлет, Душан Блашкович, Вильям Заборский, Владо Мюллер, Юлиус Вашек...
Об актёрах подробней
Описание:
Учителя из словацкой деревушки Мишо Звару отправили на войну. Среди гитлеровских полчищ, воеваших в Советском Союзе, была и словацкая дивизия. Но словаки не хотят поевать, каждый день они перебегают на советскую сторону. Когда Мишо и его друзей послали разведку, они тоже перешли к русским. Чтобы повидать раненного друга, учитель убегает из лагеря для ваоеннопленных. В это время фашистские самолёты начинают бомбить санитарный поезд. Мишо бросается к зенитному пулемёту и обстреливает немецкий самолёт.





Источник: DVD5 R5
Качество видео: DVDRip-AVC
Формат видео: MKV
Видео: 704->760x570 (4:3), 25,000 кадров/сек, H264 ~ 1390 kbps avg, 0.139 bit/pixel
Аудио: 48 kHz, Dolby Digital AC3 2.0, 192 kbps
Раздача от:
Общее
Полное имя : Prervannaya.pesnya.1960.DVDRip-AVC_[New-team]_by_AVP_Studio.mkv
Формат : Matroska
Версия формата : Version 2
Размер файла : 1,09 Гбайт
Продолжительность : 1 ч. 38 м.
Общий поток : 1584 Кбит/сек
Дата кодирования : UTC 2018-06-22 17:29:00
Программа кодирования : mkvmerge v6.1.0 ('Old Devil') built on Mar 4 2013 09:10:42
Библиотека кодирования : libebml v1.3.0 + libmatroska v1.4.0
Видео
Идентификатор : 1
Формат : AVC
Формат/Информация : Advanced Video Codec
Профиль формата : High@L4.1
Настройки формата : CABAC / 10 Ref Frames
Параметр CABAC формата : Да
Параметр RefFrames формата : 10 кадров
Идентификатор кодека : V_MPEG4/ISO/AVC
Продолжительность : 1 ч. 38 м.
Битрейт : 1390 Кбит/сек
Ширина : 704 пикселя
Высота : 570 пикселей
Соотношение сторон : 4:3
Режим частоты кадров : Постоянный
Частота кадров : 25,000 кадров/сек
Цветовое пространство : YUV
Субдискретизация насыщенности : 4:2:0
Битовая глубина : 8 бит
Тип развёртки : Прогрессивная
Бит/(Пиксели*Кадры) : 0.139
Размер потока : 957 Мбайт (86%)
Библиотека кодирования : x264 core 130 r2273 b3065e6
Настройки программы : cabac=1 / ref=10 / deblock=1:-2:-1 / analyse=0x3:0x113 / me=umh / subme=10 / psy=1 / psy_rd=1.00:0.00 / mixed_ref=1 / me_range=32 / chroma_me=1 / trellis=2 / 8x8dct=1 / cqm=0 / deadzone=21,11 / fast_pskip=1 / chroma_qp_offset=-2 / threads=6 / lookahead_threads=1 / sliced_threads=0 / nr=0 / decimate=0 / interlaced=0 / bluray_compat=0 / constrained_intra=0 / bframes=8 / b_pyramid=2 / b_adapt=2 / b_bias=0 / direct=3 / weightb=1 / open_gop=0 / weightp=2 / keyint=250 / keyint_min=25 / scenecut=40 / intra_refresh=0 / rc=2pass / mbtree=0 / bitrate=1390 / ratetol=1.0 / qcomp=0.60 / qpmin=0 / qpmax=69 / qpstep=4 / cplxblur=20.0 / qblur=0.5 / ip_ratio=1.40 / pb_ratio=1.30 / aq=1:1.00
Default : Да
Forced : Нет
Аудио
Идентификатор : 2
Формат : AC-3
Формат/Информация : Audio Coding 3
Идентификатор кодека : A_AC3
Продолжительность : 1 ч. 38 м.
Вид битрейта : Постоянный
Битрейт : 192 Кбит/сек
Каналы : 2 канала
Расположение каналов : Front: L R
Частота : 48,0 КГц
Частота кадров : 31,250 кадров/сек (1536 SPF)
Битовая глубина : 16 бит
Метод сжатия : С потерями
Размер потока : 135 Мбайт (12%)
Default : Да
Forced : Нет





   Похожие торренты   Торрент   Размер 
В этой теме нет новых непрочитанных сообщений. Прерванная песня (1960) DVDRip от New-Team

8 | 4

1.09 ГБ

В этой теме нет новых непрочитанных сообщений. Любимая песня (1955) DVDRip от New-Team

1 | 1

1.46 ГБ

В этой теме нет новых непрочитанных сообщений. Любимая песня (1955) DVDRip-AVC от New-Team

6 | 7

1.46 ГБ

В этой теме нет новых непрочитанных сообщений. Любимая песня (1955) DVDRip от New-Team

10 | 1

745.65 МБ

В этой теме нет новых непрочитанных сообщений. Трижды воскресший (1960) DVDRip от New-Team

7 | 7

1.09 ГБ

В этой теме нет новых непрочитанных сообщений. Киевлянка (1958-1960) DVDRip-AVC от New-Team

22 | 0

2.18 ГБ

В этой теме нет новых непрочитанных сообщений. Первые испытания (1960) DVDRip от New-Team

0 | 0

2.18 ГБ




Вы не можете начинать темы
Вы не можете отвечать на сообщения
Вы не можете редактировать свои сообщения
Вы не можете удалять свои сообщения
Вы не можете добавлять вложения

Перейти:  
 Вход
ppkBB3cker v.2 © 2008-2014 @ PPK
[ Time : 0.034s | 16 Queries | GZIP : Off ]

cron