img image001 image001 image001 image001 image001 image001 image001 image001 image001 image001 image001 image001 image001 image001 image001 image001

Planets Sun Sun Sun
Статистика раздачи
Автор: Снежана | Размер: 1.9 ГБ | Добавлен: 26 июн 2018
Раздают: 8    Качают: 2
Скачать торрент
Скачать торрент
Описание торрента

СообщениеДобавлено: 26 июн 2018 

Информация о фильме
Название: Двое и одна
Год выхода: 1988
Жанр: Драма
Режиссер: Эдуард Гаврилов
В ролях: Георгий Бурков, Мария Комаринская, Елена Майорова, Юрий Астафьев, Надежда Федосова, Вадим Захарченко, Юрий Белов, Анна Фроловцева, Мария Виноградова, Юрий Саранцев, Вера Петрова, Наталья Хорохорина, Андрей Гусев (I), Виктор Филиппов
О фильме: Нелепая смерть женщины объединила трёх героев фильма: её шестилетнюю дочь Олю, отца девочки и мужчину с которым мать Оли познакомилась незадолго до гибели.

Выпущено: СССР, Киностудия им. М. Горького
Продолжительность: 01:20:02
Перевод: Не требуется
Файл
Кодек: х264
Качество: DVDRip-AVC
Видео: MPEG-4 AVC, 692x472@738x472, 25.000 fps, 3200 Кбит/с
Аудио: AC3, 2 ch, 192 Кбит/с
Субтитры: Нет
Релиз от:


Общее
Уникальный идентификатор : 187520154083382660330212593365878067634 (0x8D131167F55A9A5185176881E82C51B2)
Полное имя : Двое и одна.1988.DVDRip-AVC.KORSAR.mkv
Формат : Matroska
Версия формата : Version 2
Размер файла : 1,90 Гбайт
Продолжительность : 1 ч. 20 м.
Общий поток : 3394 Кбит/сек
Дата кодирования : UTC 2017-10-05 04:09:27
Программа кодирования : mkvmerge v7.8.0 ('River Man') 32bit built on Apr 3 2015 12:11:22
Библиотека кодирования : libebml v1.3.1 + libmatroska v1.4.2
Видео
Идентификатор : 1
Формат : AVC
Формат/Информация : Advanced Video Codec
Профиль формата : High@L4.1
Параметр CABAC формата : Да
Параметр ReFrames формата : 13 кадров
Идентификатор кодека : V_MPEG4/ISO/AVC
Продолжительность : 1 ч. 20 м.
Битрейт : 3200 Кбит/сек
Ширина : 692 пикселя
Высота : 472 пикселя
Соотношение сторон : 16:10
Режим частоты кадров : Постоянный
Частота кадров : 25,000 кадров/сек
Цветовое пространство : YUV
Субдискретизация насыщенности : 4:2:0
Битовая глубина : 8 бит
Тип развёртки : Прогрессивная
Бит/(Пиксели*Кадры) : 0.392
Размер потока : 1,75 Гбайт (92%)
Библиотека кодирования : x264 core 148 r2744kMod b97ae06
Настройки программы : cabac=1 / ref=13 / deblock=1:-2:-2 / analyse=0x3:0x133 / me=umh / subme=10 / psy=1 / fade_compensate=0.00 / psy_rd=1.05:0.10 / mixed_ref=1 / me_range=32 / chroma_me=1 / trellis=2 / 8x8dct=1 / cqm=0 / deadzone=21,11 / fast_pskip=0 / chroma_qp_offset=-3 / threads=6 / lookahead_threads=1 / sliced_threads=0 / nr=0 / decimate=0 / interlaced=0 / bluray_compat=0 / constrained_intra=0 / bframes=8 / b_pyramid=2 / b_adapt=2 / b_bias=0 / direct=3 / weightb=1 / open_gop=0 / weightp=2 / keyint=250 / keyint_min=25 / scenecut=40 / intra_refresh=0 / rc=2pass / mbtree=0 / bitrate=3200 / ratetol=1.0 / qcomp=0.63 / qpmin=0 / qpmax=39 / qpstep=4 / cplxblur=20.0 / qblur=0.5 / ip_ratio=1.10 / pb_ratio=1.30 / aq=1:1.00
Язык : Russian
Default : Да
Forced : Нет
Цветовой диапазон : Limited
Основные цвета : BT.601 PAL
Характеристики трансфера : BT.470 System B, BT.470 System G
Коэффициенты матрицы : BT.601
Аудио
Идентификатор : 2
Формат : AC-3
Формат/Информация : Audio Coding 3
Параметр Endianness формата : Big
Идентификатор кодека : A_AC3
Продолжительность : 1 ч. 20 м.
Вид битрейта : Постоянный
Битрейт : 192 Кбит/сек
Каналы : 2 канала
Расположение каналов : Front: L R
Частота : 48,0 КГц
Частота кадров : 31,250 кадров/сек (1536 spf)
Битовая глубина : 16 бит
Метод сжатия : С потерями
Размер потока : 110 Мбайт (6%)
Язык : Russian
Default : Да
Forced : Нет



   Похожие торренты   Торрент   Размер 
В этой теме нет новых непрочитанных сообщений. Двое и одна (1988) DVDRip

11 | 1

1.37 ГБ

В этой теме нет новых непрочитанных сообщений. Слезы под дождем / Tears in the Rain (1988) DVDRip-AVC от KORSAR | P, А, L1

1 | 0

2.72 ГБ

В этой теме нет новых непрочитанных сообщений. Жила-была одна баба (2011) BDRip 720p от KORSAR

15 | 0

8.42 ГБ

В этой теме нет новых непрочитанных сообщений. Двое в пути / Двое на дороге / Two for the Road (1967) BDRip 1080p [Hi10P] от Deadmauvlad | P

6 | 5

11.64 ГБ

В этой теме нет новых непрочитанных сообщений. Ток-радио / Talk Radio (1988) WEB-DLRip 720p от KORSAR | P

3 | 0

5.46 ГБ

В этой теме нет новых непрочитанных сообщений. Двое (1965) DVDRip

452 | 10

300.25 МБ

В этой теме нет новых непрочитанных сообщений. Двое из ларца 2 [01-12 из 12] (2008) DVDRip

252 | 66

5.32 ГБ




Вы не можете начинать темы
Вы не можете отвечать на сообщения
Вы не можете редактировать свои сообщения
Вы не можете удалять свои сообщения
Вы не можете добавлять вложения

Перейти:  
 Вход
ppkBB3cker v.2 © 2008-2014 @ PPK
[ Time : 0.022s | 15 Queries | GZIP : Off ]

cron