img image001 image001 image001 image001 image001 image001 image001 image001 image001 image001 image001 image001 image001 image001 image001 image001

Planets Sun Sun Sun
Статистика раздачи
Автор: Снежана | Размер: 2.74 ГБ | Добавлен: 18 июл 2018
Раздают: 16    Качают: 3
Скачать торрент
Скачать торрент
Описание торрента

СообщениеДобавлено: 18 июл 2018 

Информация о фильме
Год выхода: 1978
Жанр: Мелодрама
Режиссер: Ольгерд Воронцов
Актеры: Георгий Жжёнов, Алла Покровская, Игорь Янковский, Анатолий Ромашин, Эрнст Романов, Вадим Яковлев, Ростислав Плятт, Роман Громадский, Максуд Мансуров
Описание:
Герой фильма — инженер-производственник Кузьмин — узнает, что его давнишняя математическая идея на научном конгрессе признана очень перспективной. У него возникает возможность посвятить себя науке, но он делает иной выбор: остается работать на производстве, оставаясь верным избранному пути…
По одноименной повести Даниила Гранина.

Производство: СССР, Свердловская киностудия
Продолжительность: 02:04:59 (2 серии одним файлом)
Субтитры: отсутствуют
Релиз от: NNM-club, РГ Всё лучшее Детям
Исходный диск: Однофамилец (1978) DVD9
Качество видео: DVDRip-AVC
Видео: AVC, 704x528 (4:3), 25.000 fps, 2 757 Kbps (0.297 bit/pixel)
Аудио: AC-3, 48.0 KHz, 6 ch, 384 Kbps, CBR (нереставрированный)
Общее
Уникальный идентификатор : 232945340443156937436383490224548616996 (0xAF3FA40210682070989E9D4352FE1B24)
Полное имя : Однофамилец.1978.x.264.DVDRip.NNM-club.mkv
Формат : Matroska
Версия формата : Version 2
Размер файла : 2,74 Гбайт
Продолжительность : 2 ч. 5 м.
Общий поток : 3142 Кбит/сек
Дата кодирования : UTC 2018-06-23 05:12:56
Программа кодирования : mkvmerge v4.1.1 ('Bouncin' Back') сборка от Jul 3 2010 22:54:08
Библиотека кодирования : libebml v1.0.0 + libmatroska v1.0.0
Attachments : d4ca16748095.jpg
Видео
Идентификатор : 1
Формат : AVC
Формат/Информация : Advanced Video Codec
Профиль формата : High@L4.1
Параметр CABAC формата : Да
Параметр ReFrames формата : 12 кадров
Идентификатор кодека : V_MPEG4/ISO/AVC
Продолжительность : 2 ч. 5 м.
Битрейт : 2757 Кбит/сек
Ширина : 704 пикселя
Высота : 528 пикселей
Соотношение сторон : 4:3
Режим частоты кадров : Постоянный
Частота кадров : 25,000 кадров/сек
Цветовое пространство : YUV
Субдискретизация насыщенности : 4:2:0
Битовая глубина : 8 бит
Тип развёртки : Прогрессивная
Бит/(Пиксели*Кадры) : 0.297
Размер потока : 2,35 Гбайт (86%)
Заголовок : Однофамилец.1978.x.264.DVDRip.NNM-club denver7979
Библиотека кодирования : x264 core 130 r2273 b3065e6
Настройки программы : cabac=1 / ref=12 / deblock=1:-1:-1 / analyse=0x3:0x113 / me=umh / subme=10 / psy=1 / psy_rd=1.00:0.15 / mixed_ref=1 / me_range=32 / chroma_me=1 / trellis=2 / 8x8dct=1 / cqm=0 / deadzone=21,11 / fast_pskip=0 / chroma_qp_offset=-3 / threads=3 / lookahead_threads=1 / sliced_threads=0 / nr=0 / decimate=1 / interlaced=0 / bluray_compat=0 / constrained_intra=0 / bframes=6 / b_pyramid=2 / b_adapt=2 / b_bias=0 / direct=3 / weightb=1 / open_gop=0 / weightp=2 / keyint=250 / keyint_min=25 / scenecut=40 / intra_refresh=0 / rc_lookahead=40 / rc=2pass / mbtree=1 / bitrate=2757 / ratetol=1.0 / qcomp=0.60 / qpmin=0 / qpmax=69 / qpstep=4 / cplxblur=20.0 / qblur=0.5 / ip_ratio=1.40 / aq=1:1.00
Default : Да
Forced : Нет
Аудио
Идентификатор : 2
Формат : AC-3
Формат/Информация : Audio Coding 3
Расширение режима : CM (complete main)
Параметр Endianness формата : Big
Режим смешивания : Header stripping
Идентификатор кодека : A_AC3
Продолжительность : 2 ч. 5 м.
Вид битрейта : Постоянный
Битрейт : 384 Кбит/сек
Каналы : 6 каналов
Расположение каналов : Front: L C R, Side: L R, LFE
Частота : 48,0 КГц
Частота кадров : 31,250 кадров/сек (1536 spf)
Битовая глубина : 16 бит
Метод сжатия : С потерями
Размер потока : 343 Мбайт (12%)
Заголовок : Однофамилец.1978.x.264.DVDRip.NNM-club denver7979
Default : Да
Forced : Нет



   Похожие торренты   Торрент   Размер 
В этой теме нет новых непрочитанных сообщений. Коллекция фильмов с Брюсом Ли 1971-1978 / Bruce Lee Ultimate Collection (1971-1978) BDRip 1080p | D, P, P2, A

189 | 139

50.37 ГБ

В этой теме нет новых непрочитанных сообщений. Театр (1978) DVDRip-AVC

61 | 14

2.37 ГБ

В этой теме нет новых непрочитанных сообщений. Вагончик (1978) DVDRip

4 | 1

75.94 МБ

В этой теме нет новых непрочитанных сообщений. Дуэнья (1978) DVDRip-AVC

40 | 6

2.41 ГБ

В этой теме нет новых непрочитанных сообщений. Беда (1978) DVDRip-AVC

15 | 2

170.21 МБ

В этой теме нет новых непрочитанных сообщений. Вагончик (1978) DVDRip

88 | 5

130.34 МБ

В этой теме нет новых непрочитанных сообщений. Фантазм / Phantasm (1978) DVDRip-AVC

53 | 8

2.18 ГБ




Вы не можете начинать темы
Вы не можете отвечать на сообщения
Вы не можете редактировать свои сообщения
Вы не можете удалять свои сообщения
Вы не можете добавлять вложения

Перейти:  
 Вход
ppkBB3cker v.2 © 2008-2014 @ PPK
[ Time : 0.021s | 15 Queries | GZIP : Off ]

cron