img image001 image001 image001 image001 image001 image001 image001 image001 image001 image001 image001 image001 image001 image001 image001 image001

Planets Sun Sun Sun
Статистика раздачи
Автор: Снежана | Размер: 372.41 МБ | Добавлен: 18 июл 2018
Раздают: 15    Качают: 3
Скачать торрент
Скачать торрент
Описание торрента

СообщениеДобавлено: 18 июл 2018 

Страна: СССР
Производство: Центральная студия телевидения
Жанр: короткометражка, драма, военный
Год выпуска: 1960
Продолжительность: 00:35:06
Перевод: Не требуется
Cубтитры: нет
Оригинальная аудиодорожка: русский
Режиссер: Евгений Карелов
В ролях:
Леонид Харитонов, Ольга Наровчатова, Евгения Мельникова, Екатерина Мазурова, Николай Новлянский, Михаил Ульянов, Гарри Дунц, Владимир Селезнёв (III), Павел Шальнов, Ксана Сивова, Дмитрий Матвеев...
Об актёрах подробней
Описание:
По одноименной повести А.Гайдара.
К населённому пункту приближаются белые войска. Небольшой гарнизон красноармейцев решает эвакуировать мирных жителей и раненого бойца в безопасное место. Это ответственное дело поручается молодому комсомольцу Ефимке. Подводы выезжают из села и едут по лесным дорогам, но сбиваются с пути. Ночью на привале Ефимка, его мать и Верка говорят о будущем, о доме в сорок этажей с башней, звездой и прожектором - пусть светит!.. Ефимка решает пробраться к отряду красноармейцев. В лесу он наталкивается на белых, в перестрелке убивает белого офицера. И когда на беженцев нападают белые, появляется красный отряд. Его привёл Ефимка.





Исходник: DVB
Качество видео: SATRip-AVC
Формат видео: MKV
Видео: 704->760x570 (4:3), 25,000 кадров/сек, H264 ~ 1290 kbps avg, 0.129 bit/pixel
Аудио: 48 kHz, Dolby Digital AC3 2.0, 192 kbps
Раздача от:
Общее
Полное имя : Pust.svetit.1960.SATRip-AVC_[New-team]_by_AVP_Studio.mkv
Формат : Matroska
Версия формата : Version 2
Размер файла : 372 Мбайт
Продолжительность : 35 м. 5 с.
Общий поток : 1484 Кбит/сек
Дата кодирования : UTC 2018-07-04 15:07:38
Программа кодирования : mkvmerge v6.1.0 ('Old Devil') built on Mar 4 2013 09:10:42
Библиотека кодирования : libebml v1.3.0 + libmatroska v1.4.0
Видео
Идентификатор : 1
Формат : AVC
Формат/Информация : Advanced Video Codec
Профиль формата : High@L4.1
Настройки формата : CABAC / 10 Ref Frames
Параметр CABAC формата : Да
Параметр RefFrames формата : 10 кадров
Идентификатор кодека : V_MPEG4/ISO/AVC
Продолжительность : 35 м. 5 с.
Битрейт : 1290 Кбит/сек
Ширина : 704 пикселя
Высота : 570 пикселей
Соотношение сторон : 4:3
Режим частоты кадров : Постоянный
Частота кадров : 25,000 кадров/сек
Цветовое пространство : YUV
Субдискретизация насыщенности : 4:2:0
Битовая глубина : 8 бит
Тип развёртки : Прогрессивная
Бит/(Пиксели*Кадры) : 0.129
Размер потока : 317 Мбайт (85%)
Библиотека кодирования : x264 core 130 r2273 b3065e6
Настройки программы : cabac=1 / ref=10 / deblock=1:-2:-1 / analyse=0x3:0x113 / me=umh / subme=10 / psy=1 / psy_rd=1.00:0.00 / mixed_ref=1 / me_range=32 / chroma_me=1 / trellis=2 / 8x8dct=1 / cqm=0 / deadzone=21,11 / fast_pskip=1 / chroma_qp_offset=-2 / threads=6 / lookahead_threads=1 / sliced_threads=0 / nr=0 / decimate=0 / interlaced=0 / bluray_compat=0 / constrained_intra=0 / bframes=8 / b_pyramid=2 / b_adapt=2 / b_bias=0 / direct=3 / weightb=1 / open_gop=0 / weightp=2 / keyint=250 / keyint_min=25 / scenecut=40 / intra_refresh=0 / rc=2pass / mbtree=0 / bitrate=1290 / ratetol=1.0 / qcomp=0.60 / qpmin=0 / qpmax=69 / qpstep=4 / cplxblur=20.0 / qblur=0.5 / ip_ratio=1.40 / pb_ratio=1.30 / aq=1:1.00
Default : Да
Forced : Нет
Аудио
Идентификатор : 2
Формат : AC-3
Формат/Информация : Audio Coding 3
Идентификатор кодека : A_AC3
Продолжительность : 35 м. 5 с.
Вид битрейта : Постоянный
Битрейт : 192 Кбит/сек
Каналы : 2 канала
Расположение каналов : Front: L R
Частота : 48,0 КГц
Частота кадров : 31,250 кадров/сек (1536 SPF)
Битовая глубина : 16 бит
Метод сжатия : С потерями
Размер потока : 48,2 Мбайт (13%)
Default : Да
Forced : Нет





   Похожие торренты   Торрент   Размер 
В этой теме нет новых непрочитанных сообщений. Пусть светит (1960) SATRip от New-Team

2 | 1

373.11 МБ

В этой теме нет новых непрочитанных сообщений. Солнце светит всем (1959) SATRip от New-Team

4 | 0

745.7 МБ

В этой теме нет новых непрочитанных сообщений. Солнце светит всем (1959) SATRip-AVC от New-Team

1 | 0

1.09 ГБ

В этой теме нет новых непрочитанных сообщений. Солнце светит всем (1959) SATRip от New-Team

4 | 0

1.09 ГБ

В этой теме нет новых непрочитанных сообщений. Чудотворная (1960) SATRip от New-Team

5 | 0

1.09 ГБ

В этой теме нет новых непрочитанных сообщений. Тишина (1960) SATRip-AVC от New-Team

10 | 1

1.09 ГБ

В этой теме нет новых непрочитанных сообщений. Тишина (1960) SATRip от New-Team

21 | 2

1.09 ГБ




Вы не можете начинать темы
Вы не можете отвечать на сообщения
Вы не можете редактировать свои сообщения
Вы не можете удалять свои сообщения
Вы не можете добавлять вложения

Перейти:  
 Вход
ppkBB3cker v.2 © 2008-2014 @ PPK
[ Time : 0.037s | 16 Queries | GZIP : Off ]

cron