img image001 image001 image001 image001 image001 image001 image001 image001 image001 image001 image001 image001 image001 image001 image001 image001

Planets Sun Sun Sun
Статистика раздачи
Автор: Снежана | Размер: 1.09 ГБ | Добавлен: 18 июл 2018
Раздают: 21    Качают: 2
Скачать торрент
Скачать торрент
Описание торрента

СообщениеДобавлено: 18 июл 2018 

Страна: СССР
Производство: Мосфильм
Жанр: комедия
Год выпуска: 1960
Продолжительность: 01:41:26
Перевод: Не требуется
Cубтитры: нет
Оригинальная аудиодорожка: русский
Режиссер: Григорий Александров
В ролях:
Любовь Орлова, Андрей Попов, Павел Кадочников, Эраст Гарин, Элина Быстрицкая, Александр Барушной, Валентин Гафт, Лю Чжи-Чан...
Об актёрах подробней
Описание:
На берегу Байкала совершает вынужденную посадку самолет с туристами, летящими в Пекин. Все пассажиры иностранцы, кроме Варвары Комаровой (Любовь Орлова). Здесь и магистр теологии Джон Пиблс (Эраст Гарин), приехавший в Россию узнать, "чем они заменили Бога", здесь и американский миллионер Эдлай Скотт (Андрей Попов), волнуемый проблемой "можно ли Россию вернуть к капитализму", со своим секретарём Гомером Джонсом (Павел Кадочников), и итальянская "графиня" Пандора Монтези (Элина Быстрицкая), и, наконец, таинственный доктор Адамс.





Исходник: DVB
Качество видео: SATRip
Формат видео: AVI
Видео: 704x528 (4:3), 25,000 кадров/сек, XviD ~ 1336 kbps avg, 0.144 bit/pixel
Аудио: 48 kHz, Dolby Digital AC3 2.0, 192 kbps
Раздача от:
Общее
Полное имя : Russkiy.suvenir.1960.SATRip_[New-team]_by_AVP_Studio.avi
Формат : AVI
Формат/Информация : Audio Video Interleave
Размер файла : 1,09 Гбайт
Продолжительность : 1 ч. 41 м.
Общий поток : 1537 Кбит/сек
Программа кодирования : VirtualDubMod 1.5.10.3 | www.virtualdub-fr.org || (build 2550/release)
Библиотека кодирования : VirtualDubMod build 2550/release
Видео
Идентификатор : 0
Формат : MPEG-4 Visual
Профиль формата : Advanced Simple@L5
Настройки формата : BVOP1 / Custom Matrix
Параметр BVOP формата : 1
Параметр QPel формата : Нет
Параметр GMC формата : Без точки перехода
Параметр матрицы формата : Выборочная
Идентификатор кодека : XVID
Идентификатор кодека/Подсказка : XviD
Продолжительность : 1 ч. 41 м.
Битрейт : 1336 Кбит/сек
Ширина : 704 пикселя
Высота : 528 пикселей
Соотношение сторон : 4:3
Частота кадров : 25,000 кадров/сек
Цветовое пространство : YUV
Субдискретизация насыщенности : 4:2:0
Битовая глубина : 8 бит
Тип развёртки : Прогрессивная
Метод сжатия : С потерями
Бит/(Пиксели*Кадры) : 0.144
Размер потока : 969 Мбайт (87%)
Библиотека кодирования : XviD 73
Аудио
Идентификатор : 1
Формат : AC-3
Формат/Информация : Audio Coding 3
Идентификатор кодека : 2000
Продолжительность : 1 ч. 41 м.
Вид битрейта : Постоянный
Битрейт : 192 Кбит/сек
Каналы : 2 канала
Расположение каналов : Front: L R
Частота : 48,0 КГц
Частота кадров : 31,250 кадров/сек (1536 SPF)
Битовая глубина : 16 бит
Метод сжатия : С потерями
Размер потока : 139 Мбайт (12%)
Выравнивание : Разделение по промежуткам
Продолжительность промежутка : 40 мс. (1,00 видеокадр)
Время предзагрузки промежутка : 500 мс





   Похожие торренты   Торрент   Размер 
В этой теме нет новых непрочитанных сообщений. Русский сувенир (1960) SATRip-AVC от New-Team

25 | 6

1.09 ГБ

В этой теме нет новых непрочитанных сообщений. Русский сувенир (1960) SATRip от ExKinoRay

13 | 0

745.61 МБ

В этой теме нет новых непрочитанных сообщений. Русский сувенир (1960) SATRip от ExKinoRay

2 | 0

1.46 ГБ

В этой теме нет новых непрочитанных сообщений. Русский сувенир (1960) DVB

20 | 0

2.02 ГБ

В этой теме нет новых непрочитанных сообщений. Возвращение (1960) SATRip от New-Team

10 | 1

1.09 ГБ

В этой теме нет новых непрочитанных сообщений. Возвращение (1960) SATRip-AVC от New-Team

23 | 1

1.09 ГБ

В этой теме нет новых непрочитанных сообщений. Тишина (1960) SATRip-AVC от New-Team

18 | 1

1.09 ГБ




Вы не можете начинать темы
Вы не можете отвечать на сообщения
Вы не можете редактировать свои сообщения
Вы не можете удалять свои сообщения
Вы не можете добавлять вложения

Перейти:  
 Вход
ppkBB3cker v.2 © 2008-2014 @ PPK
[ Time : 0.037s | 16 Queries | GZIP : Off ]

cron