img image001 image001 image001 image001 image001 image001 image001 image001 image001 image001 image001 image001 image001 image001 image001 image001

Planets Sun Sun Sun
Статистика раздачи
Автор: Снежана | Размер: 1.46 ГБ | Добавлен: 18 июл 2018
Раздают: 1623    Качают: 36
Скачать торрент
Скачать торрент
Описание торрента

СообщениеДобавлено: 18 июл 2018 

Информация о фильме
Название: Я худею
Год выхода: 2018
Жанр: Комедия
Страна: Россия
Перевод: Не требуется
Продолжительность: 01:42:40
Режиссер: Алексей Нужный
В ролях: Александра Бортич, Ирина Горбачева, Сергей Шнуров, Евгений Кулик, Роман Курцын, Александр Пташенчук, Елена Валюшкина, Валерия Дергилева, Андрей Трушин, Олег Кассин и др.
О фильме: В жизни Ани есть две главные любви — её парень Женя и еда. Из-за еды они и расстаются: Жене совсем не нравится, как Аня стала выглядеть. Аня не готова просто сдаться. При поддержке лучшей подруги и увлечённого здоровым образом жизни добряка Коли она пускается в увлекательное приключение, чтобы похудеть и обрести любовь и счастье.

Файл
Формат: AVI
Качество: BDRip
Видео: Xvid, 720x320, ~1581 kbps, 24,000 fps
Звук: русский, AC3 5.1, 48 kHz, 448 kbps | Лицензия
Субтитры: нет
General
Полное имя : F:TorrentJaHudeyuBDRipAVI.avi
Формат : AVI
Формат/Информация : Audio Video Interleave
Размер файла : 1.46 GiB
Продолжительность : 1 h 42 min
Общий поток : 2 038 kb/s
Библиотека кодирования : VirtualDub build 35491/release
Video
Идентификатор : 0
Формат : MPEG-4 Visual
Профиль формата : Advanced Simple@L5
Настройки формата : BVOP2 / Custom Matrix
Параметр BVOP формата : 2
Параметр QPel формата : No
Параметр GMC формата : No warppoints
Параметр матрицы формата : Custom
Идентификатор кодека : XVID
Идентификатор кодека/Подсказка : XviD
Продолжительность : 1 h 42 min
Битрейт : 1 581 kb/s
Ширина : 720 pixels
Высота : 320 pixels
Соотношение сторон : 2.25:1
Частота кадров : 24.000 FPS
Цветовое пространство : YUV
Субдискретизация насыщенности : 4:2:0
Битовая глубина : 8 bits
Тип развёртки : Progressive
Метод сжатия : Lossy
Бит/(Пиксели*Кадры) : 0.286
Размер потока : 1.13 GiB (78%)
Библиотека кодирования : XviD 67
Audio
Идентификатор : 1
Формат : AC-3
Формат/Информация : Audio Coding 3
Идентификатор кодека : 2000
Продолжительность : 1 h 42 min
Вид битрейта : Constant
Битрейт : 448 kb/s
Каналы : 6 channels
Расположение каналов : Front: L C R, Side: L R, LFE
Частота : 48.0 kHz
Частота кадров : 31.250 FPS (1536 SPF)
Битовая глубина : 16 bits
Метод сжатия : Lossy
Размер потока : 329 MiB (22%)
Выравнивание : Aligned on interleaves
Продолжительность промежутка : 42 ms (1.00 video frame)
Время предзагрузки промежутка : 512 ms






   Похожие торренты   Торрент   Размер 
В этой теме нет новых непрочитанных сообщений. Я худею (2018) BDRip-AVC | Лицензия

774 | 19

2.18 ГБ

В этой теме нет новых непрочитанных сообщений. Я худею (2018) BDRip 1080p | Лицензия

632 | 36

8.71 ГБ

В этой теме нет новых непрочитанных сообщений. Я худею (2018) BDRip 720p | Лицензия

400 | 27

5.47 ГБ

В этой теме нет новых непрочитанных сообщений. Я худею [10.10] (2015) SATRip

71 | 4

655.85 МБ

В этой теме нет новых непрочитанных сообщений. Я худею [17.10] (2015) SATRip

57 | 7

642.43 МБ

В этой теме нет новых непрочитанных сообщений. Я худею [03.10] (2015) SATRip

62 | 5

615.24 МБ

В этой теме нет новых непрочитанных сообщений. Я худею [26.09] (2015) SATRip

72 | 4

622.87 МБ




Вы не можете начинать темы
Вы не можете отвечать на сообщения
Вы не можете редактировать свои сообщения
Вы не можете удалять свои сообщения
Вы не можете добавлять вложения

Перейти:  
 Вход
ppkBB3cker v.2 © 2008-2014 @ PPK
[ Time : 0.029s | 16 Queries | GZIP : Off ]

cron