img image001 image001 image001 image001 image001 image001 image001 image001 image001 image001 image001 image001 image001 image001 image001 image001

Planets Sun Sun Sun
Статистика раздачи
Автор: Снежана | Размер: 2.18 ГБ | Добавлен: 18 июл 2018
Раздают: 774    Качают: 19
Скачать торрент
Скачать торрент
Описание торрента

СообщениеДобавлено: 18 июл 2018 

Информация о фильме
Название: Я худею
Год выхода: 2018
Жанр: Комедия
Страна: Россия
Перевод: Не требуется
Продолжительность: 01:42:40
Режиссер: Алексей Нужный
В ролях: Александра Бортич, Ирина Горбачева, Сергей Шнуров, Евгений Кулик, Роман Курцын, Александр Пташенчук, Елена Валюшкина, Валерия Дергилева, Андрей Трушин, Олег Кассин и др.
О фильме: В жизни Ани есть две главные любви — её парень Женя и еда. Из-за еды они и расстаются: Жене совсем не нравится, как Аня стала выглядеть. Аня не готова просто сдаться. При поддержке лучшей подруги и увлечённого здоровым образом жизни добряка Коли она пускается в увлекательное приключение, чтобы похудеть и обрести любовь и счастье.

Файл
Формат: MKV
Качество: BDRip
Видео: MPEG-4 AVC, 1024x458, ~2400 kbps, 24,000 fps
Звук: русский, AC3 5.1, 48 kHz, 640 kbps | Лицензия
Субтитры: нет
General
Уникальный идентификатор : 243570225380860491227729114139201576901 (0xB73DEB47A94B308BA27935493A5F1FC5)
Полное имя : F:TorrentJaHudeyuBDRipAVC.mkv
Формат : Matroska
Версия формата : Version 4 / Version 2
Размер файла : 2.18 GiB
Продолжительность : 1 h 42 min
Общий поток : 3 038 kb/s
Дата кодирования : UTC 2018-07-14 07:59:48
Программа кодирования : mkvmerge v9.5.0 ('Quiet Fire') 64bit
Библиотека кодирования : libebml v1.3.4 + libmatroska v1.4.5
Video
Идентификатор : 1
Формат : AVC
Формат/Информация : Advanced Video Codec
Профиль формата : High@L4.1
Настройки формата : CABAC / 10 Ref Frames
Параметр CABAC формата : Yes
Параметр RefFrames формата : 10 frames
Идентификатор кодека : V_MPEG4/ISO/AVC
Продолжительность : 1 h 42 min
Битрейт : 2 400 kb/s
Ширина : 1 024 pixels
Высота : 458 pixels
Соотношение сторон : 2.25:1
Режим частоты кадров : Constant
Частота кадров : 24.000 FPS
Цветовое пространство : YUV
Субдискретизация насыщенности : 4:2:0
Битовая глубина : 8 bits
Тип развёртки : Progressive
Бит/(Пиксели*Кадры) : 0.213
Размер потока : 1.72 GiB (79%)
Библиотека кодирования : x264 core 155 r2901M 7d0ff22
Настройки программы : cabac=1 / ref=10 / deblock=1:-3:-3 / analyse=0x3:0x133 / me=umh / subme=11 / psy=1 / psy_rd=1.00:0.00 / mixed_ref=1 / me_range=48 / chroma_me=1 / trellis=2 / 8x8dct=1 / cqm=0 / deadzone=21,11 / fast_pskip=0 / chroma_qp_offset=-2 / threads=5 / lookahead_threads=1 / sliced_threads=0 / nr=0 / decimate=0 / interlaced=0 / bluray_compat=0 / constrained_intra=0 / bframes=10 / b_pyramid=2 / b_adapt=2 / b_bias=0 / direct=3 / weightb=1 / open_gop=0 / weightp=2 / keyint=240 / keyint_min=24 / scenecut=40 / intra_refresh=0 / rc_lookahead=120 / rc=2pass / mbtree=0 / bitrate=2400 / ratetol=1.0 / qcomp=0.70 / qpmin=0 / qpmax=69 / qpstep=4 / cplxblur=20.0 / qblur=0.5 / vbv_maxrate=62500 / vbv_bufsize=78125 / nal_hrd=none / filler=0 / ip_ratio=1.40 / pb_ratio=1.30 / aq=1:1.00
Default : Yes
Forced : No
Цветовой диапазон : Limited
Основные цвета : BT.709
Характеристики трансфера : BT.709
Коэффициенты матрицы : BT.709
Audio
Идентификатор : 2
Формат : AC-3
Формат/Информация : Audio Coding 3
Идентификатор кодека : A_AC3
Продолжительность : 1 h 42 min
Вид битрейта : Constant
Битрейт : 640 kb/s
Каналы : 6 channels
Расположение каналов : Front: L C R, Side: L R, LFE
Частота : 48.0 kHz
Частота кадров : 31.250 FPS (1536 SPF)
Битовая глубина : 16 bits
Метод сжатия : Lossy
Размер потока : 470 MiB (21%)
Язык : Russian
Default : Yes
Forced : No
Menu
00:00:00.000 : en:Chapter 1
00:01:17.333 : en:Chapter 2
00:12:28.125 : en:Chapter 3
00:23:17.083 : en:Chapter 4
00:31:58.791 : en:Chapter 5
00:45:29.125 : en:Chapter 6
00:56:08.125 : en:Chapter 7
01:10:30.666 : en:Chapter 8
01:26:25.708 : en:Chapter 9






   Похожие торренты   Торрент   Размер 
В этой теме нет новых непрочитанных сообщений. Я худею (2018) BDRip | Лицензия

1623 | 36

1.46 ГБ

В этой теме нет новых непрочитанных сообщений. Я худею (2018) BDRip 1080p | Лицензия

632 | 36

8.71 ГБ

В этой теме нет новых непрочитанных сообщений. Я худею (2018) BDRip 720p | Лицензия

400 | 27

5.47 ГБ

В этой теме нет новых непрочитанных сообщений. Я худею [10.10] (2015) SATRip

71 | 4

655.85 МБ

В этой теме нет новых непрочитанных сообщений. Я худею [17.10] (2015) SATRip

57 | 7

642.43 МБ

В этой теме нет новых непрочитанных сообщений. Я худею [03.10] (2015) SATRip

62 | 5

615.24 МБ

В этой теме нет новых непрочитанных сообщений. Я худею [26.09] (2015) SATRip

72 | 4

622.87 МБ




Вы не можете начинать темы
Вы не можете отвечать на сообщения
Вы не можете редактировать свои сообщения
Вы не можете удалять свои сообщения
Вы не можете добавлять вложения

Перейти:  
 Вход
ppkBB3cker v.2 © 2008-2014 @ PPK
[ Time : 0.023s | 16 Queries | GZIP : Off ]

cron