img image001 image001 image001 image001 image001 image001 image001 image001 image001 image001 image001 image001 image001 image001 image001 image001

Planets Sun Sun Sun
Статистика раздачи
Автор: Снежана | Размер: 1.69 ГБ | Добавлен: 18 июл 2018
Раздают: 18    Качают: 3
Скачать торрент
Скачать торрент
Описание торрента

СообщениеДобавлено: 18 июл 2018 

Катька и Шиз

Год выпуска: 1992
Жанр: Криминальная драма
Продолжительность: 01:18:09
Режиссёр: Тигран Кеосаян
В ролях: Денис Карасев, Елена Шевченко, Армен Джигарханян, Георгий Дрозд, Ирина Метлицкая,Отар Мегвинетухуцеси, Юрий Васильев, Сергей Чонишвили, Александр Орлов (III), Ирина Метлицкая.
Описание: Молодой реставратор подменяет подлинник Ван -Дейка на копию и сбывает ее за очень крупную сумму. Чтобы спастись от следствия и обманутого покупателя, герой притворяется сумасшедшим. Это предыстория. История начинается с похищения героя из психиатрической клиники…

Баннеры с названием фильма, после рекламных вставок и анонсом следующих передач в раздаче присутствуют
Качество: DVB
Формат: MPEG
Видео кодек: MPEG2
Аудио кодек: MPEG Audio (Version 1) (Layer 2)
Видео: MPEG 2, 704 x 576, 25 fps, 2850 kbps
Аудио: MPEG Audio (Version 1) (Layer 2), 2 Ch, 48.000, 192 kbps
Релиз спутникового канала: Мир ТВ
General
Complete name : D:Катька и Шиз . (1992)_DVB by SLuMeP .mpg
Format : MPEG-PS
File size : 1.69 GiB
Duration : 1h 18mn
Overall bit rate : 3 092 Kbps
Writing library : (c) 1998-2008 Womble Multimedia, Inc. / MPEG Video Wizard (08/2008) / Aug 25 2008
Video
ID : 224 (0xE0)
Format : MPEG Video
Format version : Version 2
Format profile : Main@Main
Format settings, BVOP : Yes
Format settings, Matrix : Default
Duration : 1h 18mn
Bit rate mode : Variable
Bit rate : 2 838 Kbps
Nominal bit rate : 15.0 Mbps
Width : 704 pixels
Height : 576 pixels
Display aspect ratio : 4:3
Frame rate : 25.000 fps
Standard : PAL
Color space : YUV
Chroma subsampling : 4:2:0
Bit depth : 8 bits
Compression mode : Lossy
Bits/(Pixel*Frame) : 0.280
Stream size : 1.55 GiB (92%)
Writing library : (c) 1998-2008 Womble Multimedia, Inc. / MPEG Video Wizard (08/2008) / Aug 25 2008
Audio
ID : 192 (0xC0)
Format : MPEG Audio
Format version : Version 1
Format profile : Layer 2
Mode extension : Intensity Stereo + MS Stereo
Duration : 1h 18mn
Bit rate mode : Constant
Bit rate : 192 Kbps
Channel(s) : 1 channel
Sampling rate : 48.0 KHz
Compression mode : Lossy
Stream size : 107 MiB (6%)





   Похожие торренты   Торрент   Размер 
В этой теме нет новых непрочитанных сообщений. Александр Павлов - Военно-морской флот России и СНГ 1992 г (1992) PDF

14 | 4

122.7 МБ

В этой теме нет новых непрочитанных сообщений. Амитивилль 1992: Вопрос времени / Amityville: It's About Time (1992) DVDRip | A

6 | 1

1.45 ГБ

В этой теме нет новых непрочитанных сообщений. М.Задорнов. В каждой шутке. Есть доля шутки. 1992 (1992) IPTVRip от Pshichko66

69 | 16

1001.33 МБ

В этой теме нет новых непрочитанных сообщений. 1992 / 1992 [01x01-02 из 10] (2015) WEB-DLRip от ExKinoRay | Эй Би Видео

19 | 11

2.93 ГБ

В этой теме нет новых непрочитанных сообщений. Славянский базар 1992. День Беларуси (1992) DVB от AND03AND

3 | 3

3.24 ГБ

В этой теме нет новых непрочитанных сообщений. 1992 / 1992 [01x01-02 из 10] (2015) WEB-DLRip от ExKinoRay | Эй Би Видео

46 | 60

7.31 ГБ

В этой теме нет новых непрочитанных сообщений. 1992 / 1992 [01x01-02 из 10] (2015) WEB-DL 720p от ExKinoRay | Эй Би Видео

11 | 8

5.77 ГБ




Вы не можете начинать темы
Вы не можете отвечать на сообщения
Вы не можете редактировать свои сообщения
Вы не можете удалять свои сообщения
Вы не можете добавлять вложения

Перейти:  
 Вход
ppkBB3cker v.2 © 2008-2014 @ PPK
[ Time : 0.029s | 15 Queries | GZIP : Off ]

cron