img image001 image001 image001 image001 image001 image001 image001 image001 image001 image001 image001 image001 image001 image001 image001 image001

Planets Sun Sun Sun
Статистика раздачи
Автор: Снежана | Размер: 1.09 ГБ | Добавлен: 18 июл 2018
Раздают: 25    Качают: 3
Скачать торрент
Скачать торрент
Описание торрента

СообщениеДобавлено: 18 июл 2018 

Страна: СССР
Производство: Мосфильм
Жанр: драма
Год выпуска: 1958
Продолжительность: 01:25:15
Перевод: Не требуется
Cубтитры: нет
Оригинальная аудиодорожка: русский
Режиссер: Владимир Басов
В ролях:
Григорий Гай, Лилия Толмачёва, Юрий Саранцев, Николай Боголюбов, Елена Понсова, Игорь Безяев, Виталий Беляков, Глеб Стриженов, Римма Шорохова, Анатолий Ведёнкин, Леонид Довлатов, Станислав Коренев, Елизавета Кузюрина, Леонид Марков, Фёдор Одиноков, Николай Парфёнов, Татьяна Мухина...
Об актёрах подробней
Описание:
Николай Смирнов - вор-рецидивист по кличке "Акула", бежав из исправительно-трудовой колонии, вернулся в родной город и стал разыскивать дружков по воровским делам. Но за это время друзья повзрослели и теперь не хотят вспоминать прошлое. Потеряв уверенность в своих силах, он приходит к своей бывшей подруге и видит, что она воспитывает их сына. Потрясенный, Акула возвращается отбывать положенный срок, но смерть настигает его в лесных зарослях у самой колонии...
Критика приняла фильм "в штыки". Чуть ли не впервые главным героем советской картины стал уголовник, причём - не исправившийся. К тому же советская жизнь в картине была показана в невероятно мрачных тонах.





Исходник: DVB
Качество видео: SATRip
Формат видео: AVI
Видео: 688x512 (4:3), 25,000 кадров/сек, XviD ~ 1625 kbps avg, 0.185 bit/pixel
Аудио: 48 kHz, Dolby Digital AC3 2.0, 192 kbps
Раздача от:
Общее
Полное имя : Zhizn.proshla.mimo.1960.SATRip_[New-team]_by_AVP_Studio.avi
Формат : AVI
Формат/Информация : Audio Video Interleave
Размер файла : 1,09 Гбайт
Продолжительность : 1 ч. 25 м.
Общий поток : 1827 Кбит/сек
Программа кодирования : VirtualDubMod 1.5.10.3 | www.virtualdub-fr.org || (build 2550/release)
Библиотека кодирования : VirtualDubMod build 2550/release
Видео
Идентификатор : 0
Формат : MPEG-4 Visual
Профиль формата : Advanced Simple@L5
Настройки формата : BVOP1 / Custom Matrix
Параметр BVOP формата : 1
Параметр QPel формата : Нет
Параметр GMC формата : Без точки перехода
Параметр матрицы формата : Выборочная
Идентификатор кодека : XVID
Идентификатор кодека/Подсказка : XviD
Продолжительность : 1 ч. 25 м.
Битрейт : 1625 Кбит/сек
Ширина : 688 пикселей
Высота : 512 пикселей
Соотношение сторон : 4:3
Частота кадров : 25,000 кадров/сек
Цветовое пространство : YUV
Субдискретизация насыщенности : 4:2:0
Битовая глубина : 8 бит
Тип развёртки : Прогрессивная
Метод сжатия : С потерями
Бит/(Пиксели*Кадры) : 0.185
Размер потока : 991 Мбайт (89%)
Библиотека кодирования : XviD 73
Аудио
Идентификатор : 1
Формат : AC-3
Формат/Информация : Audio Coding 3
Идентификатор кодека : 2000
Продолжительность : 1 ч. 25 м.
Вид битрейта : Постоянный
Битрейт : 192 Кбит/сек
Каналы : 2 канала
Расположение каналов : Front: L R
Частота : 48,0 КГц
Частота кадров : 31,250 кадров/сек (1536 SPF)
Битовая глубина : 16 бит
Метод сжатия : С потерями
Размер потока : 117 Мбайт (11%)
Выравнивание : Разделение по промежуткам
Продолжительность промежутка : 40 мс. (1,00 видеокадр)
Время предзагрузки промежутка : 500 мс





   Похожие торренты   Торрент   Размер 
В этой теме нет новых непрочитанных сообщений. Жизнь прошла мимо (1958) SATRip-AVC от New-Team

26 | 3

1.09 ГБ

В этой теме нет новых непрочитанных сообщений. Жизнь прошла мимо (1958) SATRip от Pshichko66

20 | 23

1.27 ГБ

В этой теме нет новых непрочитанных сообщений. В твоих руках жизнь (1958) SATRip от New-Team

22 | 0

745.69 МБ

В этой теме нет новых непрочитанных сообщений. В твоих руках жизнь (1958) SATRip от New-Team

8 | 1

1.09 ГБ

В этой теме нет новых непрочитанных сообщений. В твоих руках жизнь (1958) SATRip-AVC от New-Team

14 | 0

1.09 ГБ

В этой теме нет новых непрочитанных сообщений. Мистер Икс (1958) SATRip от New-Team

9 | 0

1.09 ГБ

В этой теме нет новых непрочитанных сообщений. Мистер Икс (1958) SATRip от New-Team

6 | 0

745.26 МБ




Вы не можете начинать темы
Вы не можете отвечать на сообщения
Вы не можете редактировать свои сообщения
Вы не можете удалять свои сообщения
Вы не можете добавлять вложения

Перейти:  
 Вход
ppkBB3cker v.2 © 2008-2014 @ PPK
[ Time : 0.034s | 16 Queries | GZIP : Off ]

cron