img image001 image001 image001 image001 image001 image001 image001 image001 image001 image001 image001 image001 image001 image001 image001 image001

Planets Sun Sun Sun
Статистика раздачи
Автор: Снежана | Размер: 1.09 ГБ | Добавлен: 26 сен 2018
Раздают: 3    Качают: 0
Скачать торрент
Скачать торрент
Описание торрента

СообщениеДобавлено: 26 сен 2018 

Страна: СССР
Производство: Мосфильм
Жанр: драма
Год выпуска: 1961
Продолжительность: 01:25:02
Перевод: Не требуется
Cубтитры: нет
Оригинальная аудиодорожка: русский
Режиссер: Владимир Каплуновский
В ролях:
Евгений Шутов, Олег Ефремов, Евгений Евстигнеев, Сергей Ромоданов, Владимир Заманский, Павел Тарасов, Лаврентий Масоха, Леонид Куравлёв, Виктор Коваль, Валентина Владимирова, Игорь Сретенский, Александр Шворин, Юрий Белов, Юрий Медведев, Георгий Гумилевский, Георгий Слабиняк, Раднэр Муратов, Александр Лебедев, Виктор Колпаков, Леонид Пирогов, Наталья Архангельская, Тамара Логинова, Нина Дорошина, Отар Коберидзе, Антонина Максимова, Юрий Киреев, Кира Канаева, Владимир Лебедев, Валентина Сперантова, Владимир Маренков...
Об актёрах подробней
Описание:
По повести Петра Ширяева "Внук Тальони".
Отступающие белые, отобрав у Никиты Лыкова (Евгений Шутов) жеребца, оставляют ему в насмешку измученную, худую кобылу. От ветеринара Никита узнаёт, что к нему попала знаменитая орловская кобыла Любушка. Когда-то она была в конюшне наездника Лутошкина (Олег Ефремов).





Исходник: DVB
Качество видео: SATRip-AVC
Формат видео: MKV
Видео: 716->1147x522 (2,2:1), 25,000 кадров/сек, H264 ~ 1639 kbps avg, 0.175 bit/pixel
Аудио: 48 kHz, Dolby Digital AC3 2.0, 192 kbps
Раздача от:
Общее
Полное имя : Lyubushka.1961.SATRip-AVC_[New-team]_by_AVP_Studio.mkv
Формат : Matroska
Версия формата : Version 2
Размер файла : 1,09 Гбайт
Продолжительность : 1 ч. 25 м.
Общий поток : 1833 Кбит/сек
Дата кодирования : UTC 2018-09-14 18:48:47
Программа кодирования : mkvmerge v6.1.0 ('Old Devil') built on Mar 4 2013 09:10:42
Библиотека кодирования : libebml v1.3.0 + libmatroska v1.4.0
Видео
Идентификатор : 1
Формат : AVC
Формат/Информация : Advanced Video Codec
Профиль формата : High@L4.1
Настройки формата : CABAC / 10 Ref Frames
Параметр CABAC формата : Да
Параметр RefFrames формата : 10 кадров
Идентификатор кодека : V_MPEG4/ISO/AVC
Продолжительность : 1 ч. 25 м.
Битрейт : 1639 Кбит/сек
Ширина : 716 пикселей
Высота : 522 пикселя
Соотношение сторон : 2,2:1
Соотношение сторон в оригинале : 2,2:1
Режим частоты кадров : Постоянный
Частота кадров : 25,000 кадров/сек
Цветовое пространство : YUV
Субдискретизация насыщенности : 4:2:0
Битовая глубина : 8 бит
Тип развёртки : Прогрессивная
Бит/(Пиксели*Кадры) : 0.175
Размер потока : 976 Мбайт (88%)
Библиотека кодирования : x264 core 157 r2932 303c484
Настройки программы : cabac=1 / ref=10 / deblock=1:-2:-1 / analyse=0x3:0x113 / me=umh / subme=10 / psy=1 / psy_rd=1.00:0.00 / mixed_ref=1 / me_range=32 / chroma_me=1 / trellis=2 / 8x8dct=1 / cqm=0 / deadzone=21,11 / fast_pskip=1 / chroma_qp_offset=-2 / threads=6 / lookahead_threads=1 / sliced_threads=0 / nr=0 / decimate=0 / interlaced=0 / bluray_compat=0 / constrained_intra=0 / bframes=8 / b_pyramid=2 / b_adapt=2 / b_bias=0 / direct=3 / weightb=1 / open_gop=0 / weightp=2 / keyint=250 / keyint_min=25 / scenecut=40 / intra_refresh=0 / rc=2pass / mbtree=0 / bitrate=1639 / ratetol=1.0 / qcomp=0.60 / qpmin=0 / qpmax=69 / qpstep=4 / cplxblur=20.0 / qblur=0.5 / ip_ratio=1.40 / pb_ratio=1.30 / aq=1:1.00
Default : Да
Forced : Нет
Аудио
Идентификатор : 2
Формат : AC-3
Формат/Информация : Audio Coding 3
Коммерческое название : Dolby Digital
Идентификатор кодека : A_AC3
Продолжительность : 1 ч. 25 м.
Вид битрейта : Постоянный
Битрейт : 192 Кбит/сек
Каналы : 2 канала
Channel layout : L R
Частота : 48,0 КГц
Частота кадров : 31,250 кадров/сек (1536 SPF)
Битовая глубина : 16 бит
Метод сжатия : С потерями
Размер потока : 117 Мбайт (10%)
Default : Да
Forced : Нет





   Похожие торренты   Торрент   Размер 
В этой теме нет новых непрочитанных сообщений. Любушка (1961) SATRip от New-Team

2 | 0

745.37 МБ

В этой теме нет новых непрочитанных сообщений. Перевал (1961) SATRip-AVC от New-Team

9 | 0

1.09 ГБ

В этой теме нет новых непрочитанных сообщений. Дуэль (1961) SATRip-AVC от New-Team

7 | 0

1.09 ГБ

В этой теме нет новых непрочитанных сообщений. Дуэль (1961) SATRip от New-Team

2 | 0

1.09 ГБ

В этой теме нет новых непрочитанных сообщений. Перевал (1961) SATRip от New-Team

9 | 0

1.08 ГБ

В этой теме нет новых непрочитанных сообщений. Водяной (1961) SATRip-AVC от New-Team

13 | 0

372.24 МБ

В этой теме нет новых непрочитанных сообщений. Водяной (1961) SATRip от New-Team

16 | 0

371.99 МБ




Вы не можете начинать темы
Вы не можете отвечать на сообщения
Вы не можете редактировать свои сообщения
Вы не можете удалять свои сообщения
Вы не можете добавлять вложения

Перейти:  
cron
 Вход
ppkBB3cker v.2 © 2008-2014 @ PPK
[ Time : 0.029s | 17 Queries | GZIP : Off ]

cron