img image001 image001 image001 image001 image001 image001 image001 image001 image001 image001 image001 image001 image001 image001 image001 image001

Planets Sun Sun Sun
Статистика раздачи
Автор: Снежана | Размер: 6.36 ГБ | Добавлен: 26 сен 2018
Раздают: 89    Качают: 9
Скачать торрент
Скачать торрент
Описание торрента

СообщениеДобавлено: 26 сен 2018 

Информация о фильме
Оригинальное название: Черновик
Год выхода: 2018
Жанр: Фантастика
Режиссер: Сергей Мокрицкий
В ролях: Никита Волков, Евгений Ткачук, Ольга Боровская, Юлия Пересильд, Северия Янушаускайте, Евгений Цыганов, Елена Яковлева, Ирина Демидкина, Андрей Мерзликин, Андрей Руденский
О фильме: Молодой москвич Кирилл — талантливый дизайнер компьютерных игр. В один прекрасный день он оказывается напрочь стертым из памяти всех, кого он знал и любил. Кирилл узнает, что выбран для важной и таинственной миссии. Его предназначение — стать таможенником между параллельными мирами, коих во Вселенной десятки. Сможет ли Кирилл разгадать тайну этих таинственных миров и того, кто и зачем ими управляет? И действительно ли наша Земля — всего лишь воображаемый «черновик», параллельный мир, которого в Реальности не существует.

Выпущено: Россия / «Новые люди»
Продолжительность: 01:55:35
Озвучивание: Оригинал [Лицензия BD GER]
Файл
Формат: MKV
Качество: BDRip 720p
Видео: MPEG-4 AVC, 5745 kb/s, 1280x536
Аудио: Russian: AC3, 640 kb/s (6 ch), DTS, 1509 kb/s (6 ch)
Субтитры: отсутствуют
Общее
Уникальный идентификатор : 172162196735636624833052820474498924022 (0x81853BA5C992C3D0849BA87A79C43DF6)
Полное имя : D:ЗаготовкиChernovik.2018.O.BDRip.720p.mkv
Формат : Matroska
Версия формата : Version 2
Размер файла : 6,36 Гбайт
Продолжительность : 1 ч. 55 м.
Общий поток : 7884 Кбит/сек
Дата кодирования : UTC 2018-09-18 13:09:21
Программа кодирования : mkvmerge v7.8.0 ('River Man') 32bit built on Apr 3 2015 12:11:22
Библиотека кодирования : libebml v1.3.1 + libmatroska v1.4.2
Видео
Идентификатор : 1
Формат : AVC
Формат/Информация : Advanced Video Codec
Профиль формата : High@L4.1
Настройки формата : CABAC / 12 Ref Frames
Параметр CABAC формата : Да
Параметр RefFrames формата : 12 кадров
Идентификатор кодека : V_MPEG4/ISO/AVC
Продолжительность : 1 ч. 55 м.
Битрейт : 5745 Кбит/сек
Ширина : 1280 пикселей
Высота : 536 пикселей
Соотношение сторон : 2,40:1
Режим частоты кадров : Постоянный
Частота кадров : 24,000 кадра/сек
Цветовое пространство : YUV
Субдискретизация насыщенности : 4:2:0
Битовая глубина : 8 бит
Тип развёртки : Прогрессивная
Бит/(Пиксели*Кадры) : 0.349
Размер потока : 4,50 Гбайт (71%)
Библиотека кодирования : x264 core 152 r2851kMod ba24899
Настройки программы : cabac=1 / ref=12 / deblock=1:-3:-3 / analyse=0x3:0x133 / me=umh / subme=11 / psy=1 / fade_compensate=0.00 / psy_rd=1.00:0.00 / mixed_ref=1 / me_range=32 / chroma_me=0 / trellis=2 / 8x8dct=1 / cqm=0 / deadzone=21,11 / fast_pskip=0 / chroma_qp_offset=-2 / threads=12 / lookahead_threads=3 / sliced_threads=0 / nr=0 / decimate=0 / interlaced=0 / bluray_compat=0 / constrained_intra=0 / bframes=11 / b_pyramid=2 / b_adapt=2 / b_bias=0 / direct=3 / weightb=1 / open_gop=1 / weightp=2 / keyint=240 / keyint_min=24 / scenecut=40 / intra_refresh=0 / rc_lookahead=40 / rc=2pass / mbtree=0 / bitrate=5745 / ratetol=1.0 / qcomp=0.60 / qpmin=0 / qpmax=69 / qpstep=4 / cplxblur=20.0 / qblur=0.5 / vbv_maxrate=50000 / vbv_bufsize=62500 / nal_hrd=none / filler=0 / ip_ratio=1.40 / pb_ratio=1.30 / aq=3:0.90
Язык : Russian
Default : Да
Forced : Нет
Аудио #1
Идентификатор : 2
Формат : AC-3
Формат/Информация : Audio Coding 3
Коммерческое название : Dolby Digital
Идентификатор кодека : A_AC3
Продолжительность : 1 ч. 55 м.
Вид битрейта : Постоянный
Битрейт : 640 Кбит/сек
Каналы : 6 каналов
Channel layout : L R C LFE Ls Rs
Частота : 48,0 КГц
Частота кадров : 31,250 кадров/сек (1536 SPF)
Битовая глубина : 16 бит
Метод сжатия : С потерями
Размер потока : 529 Мбайт (8%)
Заголовок : Лицензия
Язык : Russian
Default : Да
Forced : Нет
Аудио #2
Идентификатор : 3
Формат : DTS
Формат/Информация : Digital Theater Systems
Идентификатор кодека : A_DTS
Продолжительность : 1 ч. 55 м.
Вид битрейта : Постоянный
Битрейт : 1509 Кбит/сек
Каналы : 6 каналов
Channel layout : C L R Ls Rs LFE
Частота : 48,0 КГц
Частота кадров : 93,750 кадра/сек (512 SPF)
Битовая глубина : 24 бит
Метод сжатия : С потерями
Размер потока : 1,22 Гбайт (19%)
Заголовок : Лицензия
Язык : Russian
Default : Нет
Forced : Нет
Меню
00:00:00.000 : en:Chapter 1
00:02:40.291 : en:Chapter 2
00:05:48.375 : en:Chapter 3
00:10:01.333 : en:Chapter 4
00:13:08.041 : en:Chapter 5
00:19:07.000 : en:Chapter 6
00:22:56.333 : en:Chapter 7
00:29:18.625 : en:Chapter 8
00:36:24.583 : en:Chapter 9
00:41:59.583 : en:Chapter 10
00:46:21.208 : en:Chapter 11
00:52:56.291 : en:Chapter 12
01:00:12.416 : en:Chapter 13
01:03:48.333 : en:Chapter 14
01:12:32.458 : en:Chapter 15
01:18:14.583 : en:Chapter 16
01:21:37.291 : en:Chapter 17
01:25:17.125 : en:Chapter 18
01:28:57.083 : en:Chapter 19
01:32:48.208 : en:Chapter 20
01:37:04.000 : en:Chapter 21
01:44:50.333 : en:Chapter 22
01:47:57.250 : en:Chapter 23
01:50:27.958 : en:Chapter 24





   Похожие торренты   Торрент   Размер 
В этой теме нет новых непрочитанных сообщений. Черновик (2018) BDRip-AVC от HELLYWOOD | GER Transfer | Лицензия

0 | 0

1.46 ГБ

В этой теме нет новых непрочитанных сообщений. Черновик (2018) BDRip от MegaPeer | GER Transfer | Лицензия

341 | 14

1.46 ГБ

В этой теме нет новых непрочитанных сообщений. Черновик (2018) BDRip-AVC от HELLYWOOD | GER Transfer | Лицензия

0 | 0

2.18 ГБ

В этой теме нет новых непрочитанных сообщений. Черновик (2018) BDRip от ExKinoRay | GER Transfer | Лицензия

164 | 0

2.18 ГБ

В этой теме нет новых непрочитанных сообщений. Черновик (2018) BDRip от ExKinoRay | GER Transfer | Лицензия

42 | 2

1.46 ГБ

В этой теме нет новых непрочитанных сообщений. Черновик (2018) BDRip 1080p от OlLanDGroup | GER Transfer | Лицензия

182 | 12

9.97 ГБ

В этой теме нет новых непрочитанных сообщений. Черновик (2018) Blu-ray 1080p | GER Transfer | Лицензия

18 | 2

38.72 ГБ




Вы не можете начинать темы
Вы не можете отвечать на сообщения
Вы не можете редактировать свои сообщения
Вы не можете удалять свои сообщения
Вы не можете добавлять вложения

Перейти:  
 Вход
ppkBB3cker v.2 © 2008-2014 @ PPK
[ Time : 0.028s | 18 Queries | GZIP : Off ]

cron