img image001 image001 image001 image001 image001 image001 image001 image001 image001 image001 image001 image001 image001 image001 image001 image001

Planets Sun Sun Sun
Статистика раздачи
Автор: Снежана | Размер: 9.23 ГБ | Добавлен: 26 сен 2018
Раздают: 14    Качают: 6
Скачать торрент
Скачать торрент
Описание торрента

СообщениеДобавлено: 26 сен 2018 

Год выхода: 1986
Жанр: Комедия, Музыкальный
Продолжительность: 03:13:32
Режиссер: Евгений Татарский
В ролях: Александр Кузнецов, Лев Дуров, Евгений Евстигнеев, Любовь Малиновская, Ирина Ракшина, Михаил Васьков, Надежда Смирнова, Александр Галибин, Юлия Чекмарева, Алексей Кожевников
О фильме: Яша Восьмеркин мальчишкой попал в Америку, но, узнав, что в России произошла революция, решил вернуться домой. Так Яша, ставший в Америке Джеком, сделался русским фермером и начал на родной земле внедрять в жизнь свои американские замыслы...

Страна: СССР
Студия: Ленфильм
Релиз от:
Кодек: х264
Качество: WEBRip 720p
Видео: MPEG-4 AVC, 996x720, 25 fps, 6709 Кбит/с
Звук: AC3, 2 ch, 192 Кбит/с
Субтитры: Русские

x264 [info]: frame I:598 Avg QP:18.41 size:154640
x264 [info]: frame P:23613 Avg QP:20.02 size: 76535
x264 [info]: frame B:71090 Avg QP:22.20 size: 19175
Общее
Уникальный идентификатор : 214837445875715231837193466518156638261 (0xA1A02FE076520DF8BE4456D501FC7835)
Полное имя : D:Джек Восьмеркин - американец_1986-WEBRip 720p_KORSARДжек-1.mkv
Формат : Matroska
Версия формата : Version 2
Размер файла : 3,12 Гбайт
Продолжительность : 1 ч. 3 м.
Общий поток : 7041 Кбит/сек
Название фильма : Джек Восьмеркин - американец_1986-WEBRip 720p_KORSAR
Дата кодирования : UTC 2018-09-12 15:45:40
Программа кодирования : mkvmerge v5.8.0 ('No Sleep / Pillow') built on Sep 2 2012 15:37:04
Библиотека кодирования : libebml v1.2.3 + libmatroska v1.3.0
Видео
Идентификатор : 1
Формат : AVC
Формат/Информация : Advanced Video Codec
Профиль формата : High@L4.1
Параметр CABAC формата : Да
Параметр RefFrames формата : 11 кадров
Идентификатор кодека : V_MPEG4/ISO/AVC
Продолжительность : 1 ч. 3 м.
Битрейт : 6709 Кбит/сек
Ширина : 996 пикселей
Высота : 720 пикселей
Соотношение сторон : 1,383
Режим частоты кадров : Постоянный
Частота кадров : 25,000 кадров/сек
Цветовое пространство : YUV
Субдискретизация насыщенности : 4:2:0
Битовая глубина : 8 бит
Тип развёртки : Прогрессивная
Бит/(Пиксели*Кадры) : 0.374
Размер потока : 2,98 Гбайт (95%)
Библиотека кодирования : x264 core 152 r2851kMod ba24899
Настройки программы : cabac=1 / ref=11 / deblock=1:-2:-1 / analyse=0x3:0x113 / me=umh / subme=10 / psy=1 / fade_compensate=0.00 / psy_rd=1.05:0.10 / mixed_ref=1 / me_range=40 / chroma_me=1 / trellis=2 / 8x8dct=1 / cqm=0 / deadzone=21,11 / fast_pskip=1 / chroma_qp_offset=-3 / threads=12 / lookahead_threads=3 / sliced_threads=0 / nr=0 / decimate=1 / interlaced=0 / bluray_compat=0 / constrained_intra=0 / bframes=13 / b_pyramid=2 / b_adapt=2 / b_bias=0 / direct=1 / weightb=1 / open_gop=0 / weightp=2 / keyint=250 / keyint_min=25 / scenecut=40 / intra_refresh=0 / rc=crf / mbtree=0 / crf=17.2000 / qcomp=0.63 / qpmin=0 / qpmax=39 / qpstep=4 / ip_ratio=1.40 / pb_ratio=1.30 / aq=1:0.80
Язык : English
Default : Да
Forced : Нет
Цветовой диапазон : Limited
Основные цвета : BT.709
Характеристики трансфера : BT.709
Коэффициенты матрицы : BT.709
Аудио
Идентификатор : 2
Формат : AC-3
Формат/Информация : Audio Coding 3
Параметр Endianness формата : Big
Идентификатор кодека : A_AC3
Продолжительность : 1 ч. 3 м.
Вид битрейта : Постоянный
Битрейт : 192 Кбит/сек
Каналы : 2 канала
Расположение каналов : Front: L R
Частота : 48,0 КГц
Частота кадров : 31,250 кадров/сек (1536 SPF)
Битовая глубина : 16 бит
Метод сжатия : С потерями
Размер потока : 87,3 Мбайт (3%)
Язык : Russian
Default : Да
Forced : Нет
Текст
Идентификатор : 3
Формат : UTF-8
Идентификатор кодека : S_TEXT/UTF8
Идентификатор кодека/Информация : UTF-8 Plain Text
Язык : Russian
Default : Да
Forced : Нет



   Похожие торренты   Торрент   Размер 
В этой теме нет новых непрочитанных сообщений. Джек Восьмеркин - американец (1986) DVDRip

20 | 6

1.45 ГБ

В этой теме нет новых непрочитанных сообщений. Джек Восьмеркин - американец (1986) DVDRip

78 | 16

2.9 ГБ

В этой теме нет новых непрочитанных сообщений. Джек Восьмеркин - "американец" (1986) DVDRip-AVC от ExKinoRay

249 | 48

4.34 ГБ

В этой теме нет новых непрочитанных сообщений. Взвод / Platoon (1986) BDRip 720p от KORSAR | D, Р2, Р1, А

0 | 0

10.81 ГБ

В этой теме нет новых непрочитанных сообщений. Джек-попрыгунчик / Jumpin' Jack Flash (1986) BDRip 720p от Leonardo | P, A

2 | 0

6.79 ГБ

В этой теме нет новых непрочитанных сообщений. Джек-попрыгунчик / Jumpin' Jack Flash (1986) BDRip 720p от HDCLUB

17 | 4

10.63 ГБ

В этой теме нет новых непрочитанных сообщений. Попутчик / The Hitcher (1986) DVDRip-AVC от KORSAR | P, P2, A

0 | 0

2.92 ГБ




Вы не можете начинать темы
Вы не можете отвечать на сообщения
Вы не можете редактировать свои сообщения
Вы не можете удалять свои сообщения
Вы не можете добавлять вложения

Перейти:  
 Вход
ppkBB3cker v.2 © 2008-2014 @ PPK
[ Time : 0.023s | 15 Queries | GZIP : Off ]

cron