img image001 image001 image001 image001 image001 image001 image001 image001 image001 image001 image001 image001 image001 image001 image001 image001

Planets Sun Sun Sun
Статистика раздачи
Автор: Снежана | Размер: 6.57 ГБ | Добавлен: 26 сен 2018
Раздают: 14    Качают: 2
Скачать торрент
Скачать торрент
Описание торрента

СообщениеДобавлено: 26 сен 2018 

Метро

«Осторожно! Двери закрываются!»



Страна: Россия
Жанр: триллер, драма
Год выпуска: 2012
Продолжительность: 02:11:45


Режиссер: Антон Мегердичев


В ролях: Сергей Пускепалис (Гарин), Анатолий Белый (Константинов), Светлана Ходченкова (Ирина), Анфиса Вистингаузен (Ксюша), Алексей Бардуков (Денис), Катерина Шпица (Алиса), Елена Панова (Галочка), Станислав Дужников (Михаил), Кирилл Плетнёв (Назимов), Иван Макаревич (помощник машиниста), Владимир Стержаков (Буров), Михаил Фатеев (Клоков)


Описание: Широко развернувшееся в центре Москвы строительство новых зданий приводит к тому, что в одном из тоннелей метро между двумя станциями возникает трещина. Никто себе и представить не мог, что в результате нарушения герметичности перекрытия в тоннель хлынет вода из Москва-реки, и сотни пассажиров поезда окажутся во власти надвигающегося потопа. Бешеный поток воды грозит не только обрушением тоннелей метро, но и разрушением всего города.











Качество: BDRip 720p
Контейнер: MKV
Видео: MPEG-4 AVC, 1280x544 (2.35:1), 6500 kbps, 23,976 fps, 0,389 bpp
Аудио: русский / AC3 / 5.1 / 48 kHz / 640 kbps
Навигация по главам: есть





Формат : Matroska
Версия формата : Version 2
Размер файла : 6,57 Гбайт
Продолжительность : 2 ч. 11 м.
Общий поток : 7139 Кбит/сек
Название фильма : = Метро (2012) BDRip 720p - KORSAR =
Дата кодирования : UTC 2018-09-18 08:16:48
Программа кодирования : mkvmerge v5.8.0 ('No Sleep / Pillow') built on Sep 2 2012 15:37:04
Библиотека кодирования : libebml v1.2.3 + libmatroska v1.3.0
Attachment : Yes
Видео
Идентификатор : 1
Формат : AVC
Формат/Информация : Advanced Video Codec
Профиль формата : High@L4.1
Параметр CABAC формата : Да
Параметр ReFrames формата : 12 кадров
Идентификатор кодека : V_MPEG4/ISO/AVC
Продолжительность : 2 ч. 11 м.
Битрейт : 6500 Кбит/сек
Ширина : 1280 пикселей
Высота : 544 пикселя
Соотношение сторон : 2,35:1
Режим частоты кадров : Постоянный
Частота кадров : 23,976 кадра/сек
Цветовое пространство : YUV
Субдискретизация насыщенности : 4:2:0
Битовая глубина : 8 бит
Тип развёртки : Прогрессивная
Бит/(Пиксели*Кадры) : 0.389
Размер потока : 5,85 Гбайт (89%)
Заголовок : Метро (2012) BDRip 720p - KORSAR
Библиотека кодирования : x264 core 148 r2744kMod b97ae06
Настройки программы : cabac=1 / ref=12 / deblock=1:-3:-3 / analyse=0x3:0x113 / me=umh / subme=11 / psy=1 / fade_compensate=0.00 / psy_rd=1.04:0.08 / mixed_ref=1 / me_range=48 / chroma_me=1 / trellis=2 / 8x8dct=1 / cqm=0 / deadzone=21,11 / fast_pskip=0 / chroma_qp_offset=-3 / threads=12 / lookahead_threads=3 / sliced_threads=0 / nr=0 / decimate=0 / interlaced=0 / bluray_compat=0 / constrained_intra=0 / bframes=10 / b_pyramid=2 / b_adapt=2 / b_bias=0 / direct=3 / weightb=1 / open_gop=0 / weightp=2 / keyint=240 / keyint_min=23 / scenecut=40 / intra_refresh=0 / rc_lookahead=60 / rc=2pass / mbtree=0 / bitrate=6500 / ratetol=1.0 / qcomp=0.70 / qpmin=0 / qpmax=39 / qpstep=4 / cplxblur=20.0 / qblur=0.5 / vbv_maxrate=50000 / vbv_bufsize=62500 / nal_hrd=none / filler=0 / ip_ratio=1.40 / pb_ratio=1.30 / aq=3:0.80
Язык : Russian
Default : Да
Forced : Нет
Основные цвета : BT.709
Характеристики трансфера : BT.709
Коэффициенты матрицы : BT.709
Аудио
Идентификатор : 2
Формат : AC-3
Формат/Информация : Audio Coding 3
Расширение режима : CM (complete main)
Параметр Endianness формата : Big
Идентификатор кодека : A_AC3
Продолжительность : 2 ч. 11 м.
Вид битрейта : Постоянный
Битрейт : 640 Кбит/сек
Каналы : 6 каналов
Расположение каналов : Front: L C R, Side: L R, LFE
Частота : 48,0 КГц
Битовая глубина : 16 бит
Метод сжатия : С потерями
Размер потока : 603 Мбайт (9%)
Язык : Russian
Default : Да
Forced : Нет
Меню
00:00:00.000 : en:00:00:00.000
00:11:12.964 : en:00:11:12.964
00:21:27.995 : en:00:21:27.995
00:36:22.389 : en:00:36:22.389
00:46:36.544 : en:00:46:36.544
00:54:30.267 : en:00:54:30.267
01:07:47.563 : en:01:07:47.563
01:15:07.920 : en:01:15:07.920
01:27:33.707 : en:01:27:33.707
01:38:58.391 : en:01:38:58.391
01:48:45.561 : en:01:48:45.561
02:00:19.337 : en:02:00:19.337








   Похожие торренты   Торрент   Размер 
В этой теме нет новых непрочитанных сообщений. Метро (2012) BDRip 720p от HELLYWOOD | FRE-Transfer

143 | 37

5.68 ГБ

В этой теме нет новых непрочитанных сообщений. Метро (2012) BDRip-AVC от ExKinoRay | FRE-Transfer

24 | 0

744.84 МБ

В этой теме нет новых непрочитанных сообщений. Иди и смотри (1985) BDRip-720p от KORSAR | JPN Transfer

0 | 0

10.73 ГБ

В этой теме нет новых непрочитанных сообщений. 28 панфиловцев (2016) BDRip 720p от KORSAR | GER Transfer

21 | 0

4.27 ГБ

В этой теме нет новых непрочитанных сообщений. Метро (2012) HDRip от Portablius | GER Transfer

0 | 0

797.33 МБ

В этой теме нет новых непрочитанных сообщений. Метро (2012) HDRip от Scarabey | France Transfer

1317 | 139

1.45 ГБ

В этой теме нет новых непрочитанных сообщений. Метро (2012) HDRip от Scarabey | France Transfer

103 | 22

794.39 МБ




Вы не можете начинать темы
Вы не можете отвечать на сообщения
Вы не можете редактировать свои сообщения
Вы не можете удалять свои сообщения
Вы не можете добавлять вложения

Перейти:  
 Вход
ppkBB3cker v.2 © 2008-2014 @ PPK
[ Time : 1.384s | 16 Queries | GZIP : Off ]

cron