img image001 image001 image001 image001 image001 image001 image001 image001 image001 image001 image001 image001 image001 image001 image001 image001

Planets Sun Sun Sun
Статистика раздачи
Автор: Снежана | Размер: 746.57 МБ | Добавлен: 26 сен 2018
Раздают: 40    Качают: 0
Скачать торрент
Скачать торрент
Описание торрента

СообщениеДобавлено: 26 сен 2018 

Информация о фильме
Название: Черновик
Год выхода: 2018
Жанр: Фантастика
Режиссер: Сергей Мокрицкий
В ролях: Никита Волков, Евгений Ткачук, Ольга Боровская, Юлия Пересильд, Северия Янушаускайте, Евгений Цыганов, Елена Яковлева, Ирина Демидкина, Андрей Мерзликин, Андрей Руденский
О фильме: Молодой москвич Кирилл — талантливый дизайнер компьютерных игр. В один прекрасный день он оказывается напрочь стертым из памяти всех, кого он знал и любил. Кирилл узнает, что выбран для важной и таинственной миссии. Его предназначение — стать таможенником между параллельными мирами, коих во Вселенной десятки. Сможет ли Кирилл разгадать тайну этих таинственных миров и того, кто и зачем ими управляет? И действительно ли наша Земля — всего лишь воображаемый «черновик», параллельный мир, которого в Реальности не существует.

Страна: Россия
Студия: «Новые люди»
Продолжительность: 01:55:35
Перевод: Оригинал [Лицензия BD GER]
Субтитры: Нет
Файл
Кодек: XviD
Качество: HDRip
Видео: 688x288 (2.39:1), 24.000 fps, XviD build 73 ~765 kbps avg, 0.16 bit/pixel
Звук: 48 kHz, MPEG Layer 3, 2 ch, ~128.00 kbps avg
General
Complete name : Chernovik.2018.HDRip.ot.Portablius.avi
Format : AVI
Format/Info : Audio Video Interleave
File size : 747 MiB
Duration : 1 h 55 min
Overall bit rate : 903 kb/s
Writing application : VirtualDubMod 1.5.10.3 | www.virtualdub-fr.org || (build 2550/release)
Writing library : VirtualDubMod build 2550/release
Video
ID : 0
Format : MPEG-4 Visual
Format profile : Advanced Simple@L5
Format settings, BVOP : 1
Format settings, QPel : No
Format settings, GMC : No warppoints
Format settings, Matrix : Custom
Codec ID : XVID
Codec ID/Hint : XviD
Duration : 1 h 55 min
Bit rate : 766 kb/s
Width : 688 pixels
Height : 288 pixels
Display aspect ratio : 2.40:1
Frame rate : 24.000 FPS
Color space : YUV
Chroma subsampling : 4:2:0
Bit depth : 8 bits
Scan type : Progressive
Compression mode : Lossy
Bits/(Pixel*Frame) : 0.161
Stream size : 633 MiB (85%)
Writing library : XviD 73
Audio
ID : 1
Format : MPEG Audio
Format version : Version 1
Format profile : Layer 3
Codec ID : 55
Codec ID/Hint : MP3
Duration : 1 h 55 min
Bit rate mode : Constant
Bit rate : 128 kb/s
Channel(s) : 2 channels
Sampling rate : 48.0 kHz
Compression mode : Lossy
Stream size : 106 MiB (14%)
Alignment : Aligned on interleaves
Interleave, duration : 42 ms (1.00 video frame)
Interleave, preload duratio : 504 ms
Writing library : LAME3.99r
Encoding settings : -m s -V 4 -q 2 -lowpass 17 -b 128



   Похожие торренты   Торрент   Размер 
В этой теме нет новых непрочитанных сообщений. Черновик (2018) Blu-ray 1080p | GER Transfer | Лицензия

18 | 2

38.72 ГБ

В этой теме нет новых непрочитанных сообщений. Черновик (2018) BDRip-AVC от HELLYWOOD | GER Transfer | Лицензия

0 | 0

1.46 ГБ

В этой теме нет новых непрочитанных сообщений. Черновик (2018) BDRip от ExKinoRay | GER Transfer | Лицензия

42 | 2

1.46 ГБ

В этой теме нет новых непрочитанных сообщений. Черновик (2018) BDRip-AVC от HELLYWOOD | GER Transfer | Лицензия

0 | 0

2.18 ГБ

В этой теме нет новых непрочитанных сообщений. Черновик (2018) BDRip от MegaPeer | GER Transfer | Лицензия

341 | 14

1.46 ГБ

В этой теме нет новых непрочитанных сообщений. Черновик (2018) BDRip от ExKinoRay | GER Transfer | Лицензия

164 | 0

2.18 ГБ

В этой теме нет новых непрочитанных сообщений. Черновик (2018) BDRip 720p | GER Transfer | Лицензия

89 | 9

6.36 ГБ




Вы не можете начинать темы
Вы не можете отвечать на сообщения
Вы не можете редактировать свои сообщения
Вы не можете удалять свои сообщения
Вы не можете добавлять вложения

Перейти:  
 Вход
ppkBB3cker v.2 © 2008-2014 @ PPK
[ Time : 0.032s | 15 Queries | GZIP : Off ]

cron