img image001 image001 image001 image001 image001 image001 image001 image001 image001 image001 image001 image001 image001 image001 image001 image001

Planets Sun Sun Sun
Статистика раздачи
Автор: Снежана | Размер: 5.1 ГБ | Добавлен: 26 сен 2018
Раздают: 9    Качают: 3
Скачать торрент
Скачать торрент
Описание торрента

СообщениеДобавлено: 26 сен 2018 

Название: Юность Петра
Год выхода: 1980
Жанр: Историко-биографический
Режиссер: Сергей Герасимов
В ролях: Дмитрий Золотухин, Тамара Макарова, Наталья Бондарчук, Николай Еременко мл., Олег Стриженов, Вадим Спиридонов, Михаил Ножкин, Петер Ройсе, Ульрике Кунце, Эдуард Бочаров, Любовь Полехина, Любовь Германова, Роман Филиппов, Лидия Федосеева-Шукшина
О фильме: Начало дилогии о российском императоре Петре Великом. Годы отрочества и юности царя были полны для него смертельной опасности, исходившей и от части боярства, и от бунтующих стрельцов, и от стремящейся к власти царевны Софьи. Однако уже в ту пору Петр выказывает глубокий, ясный ум, волю и целеустремленность, которые помогают обезоружить его явных и тайных врагов…

Страна: СССР
Студия: К/ст им. М. Горького, ДЕФА
Продолжительность: 01:08:28 + 01:05:13
Кодек: х264
Качество: WEB-DLRip 720p
Видео: MPEG-4 AVC, 944x720, 25 fps, ~5000 Кбит/с
Звук: AC3, 6 ch, 448 Кбит/с, AC3, 1 ch, 128 Кбит/с
Субтитры: Русские
Релиз от:

    x264 [info]: frame I:578 Avg QP:18.38 size:108824
    x264 [info]: frame P:28646 Avg QP:19.97 size: 54917
    x264 [info]: frame B:73484 Avg QP:22.16 size: 13767
    x264 [info]: consecutive B-frames: 3.7% 9.2% 10.5% 40.1% 15.4% 20.4% 0.5% 0.0% 0.0%
Общее
Уникальный идентификатор : 230846279651366708430765378254579238841 (0xADAB60521F750AB3B310C8CC697907B9)
Полное имя : D:Юность Петра_1980-WEB-DLRip 720p_KORSARЮность Петра-1.mkv
Формат : Matroska
Версия формата : Version 2
Размер файла : 2,74 Гбайт
Продолжительность : 1 ч. 8 м.
Общий поток : 5734 Кбит/сек
Название фильма : Юность Петра_1980-WEB-DLRip 720p_KORSAR
Дата кодирования : UTC 2017-10-02 06:50:46
Программа кодирования : mkvmerge v5.8.0 ('No Sleep / Pillow') built on Sep 2 2012 15:37:04
Библиотека кодирования : libebml v1.2.3 + libmatroska v1.3.0
Видео
Идентификатор : 1
Формат : AVC
Формат/Информация : Advanced Video Codec
Профиль формата : High@L4.1
Параметр CABAC формата : Да
Параметр RefFrames формата : 12 кадров
Идентификатор кодека : V_MPEG4/ISO/AVC
Продолжительность : 1 ч. 8 м.
Битрейт : 5044 Кбит/сек
Ширина : 944 пикселя
Высота : 720 пикселей
Соотношение сторон : 4:3
Режим частоты кадров : Постоянный
Частота кадров : 25,000 кадров/сек
Цветовое пространство : YUV
Субдискретизация насыщенности : 4:2:0
Битовая глубина : 8 бит
Тип развёртки : Прогрессивная
Бит/(Пиксели*Кадры) : 0.297
Размер потока : 2,41 Гбайт (88%)
Библиотека кодирования : x264 core 148 r2744kMod b97ae06
Настройки программы : cabac=1 / ref=12 / deblock=1:-2:-1 / analyse=0x3:0x113 / me=umh / subme=10 / psy=1 / fade_compensate=0.00 / psy_rd=1.00:0.10 / mixed_ref=1 / me_range=32 / chroma_me=1 / trellis=2 / 8x8dct=1 / cqm=0 / deadzone=21,11 / fast_pskip=1 / chroma_qp_offset=-3 / threads=12 / lookahead_threads=2 / sliced_threads=0 / nr=0 / decimate=1 / interlaced=0 / bluray_compat=0 / constrained_intra=0 / bframes=8 / b_pyramid=2 / b_adapt=2 / b_bias=0 / direct=1 / weightb=1 / open_gop=0 / weightp=2 / keyint=250 / keyint_min=25 / scenecut=40 / intra_refresh=0 / rc=crf / mbtree=0 / crf=17.5000 / qcomp=0.63 / qpmin=0 / qpmax=39 / qpstep=4 / ip_ratio=1.40 / pb_ratio=1.30 / aq=2:0.80
Язык : English
Default : Да
Forced : Нет
Цветовой диапазон : Limited
Основные цвета : BT.709
Характеристики трансфера : BT.709
Коэффициенты матрицы : BT.709
Аудио #1
Идентификатор : 2
Формат : AC-3
Формат/Информация : Audio Coding 3
Параметр Endianness формата : Big
Идентификатор кодека : A_AC3
Продолжительность : 1 ч. 8 м.
Вид битрейта : Постоянный
Битрейт : 448 Кбит/сек
Каналы : 6 каналов
Расположение каналов : Front: L C R, Side: L R, LFE
Частота : 48,0 КГц
Частота кадров : 31,250 кадров/сек (1536 SPF)
Битовая глубина : 16 бит
Метод сжатия : С потерями
Размер потока : 219 Мбайт (8%)
Язык : Russian
Default : Да
Forced : Нет
Аудио #2
Идентификатор : 3
Формат : AC-3
Формат/Информация : Audio Coding 3
Параметр Endianness формата : Big
Идентификатор кодека : A_AC3
Продолжительность : 1 ч. 8 м.
Вид битрейта : Постоянный
Битрейт : 128 Кбит/сек
Каналы : 1 канал
Расположение каналов : Front: C
Частота : 48,0 КГц
Частота кадров : 31,250 кадров/сек (1536 SPF)
Битовая глубина : 16 бит
Метод сжатия : С потерями
Размер потока : 62,7 Мбайт (2%)
Язык : Russian
Default : Нет
Forced : Нет
Текст
Идентификатор : 4
Формат : UTF-8
Идентификатор кодека : S_TEXT/UTF8
Идентификатор кодека/Информация : UTF-8 Plain Text
Язык : Russian
Default : Нет
Forced : Нет
Меню
00:00:00.000 : en:Chapter 1
00:05:54.560 : en:Chapter 2
00:10:45.160 : en:Chapter 3
00:16:06.560 : en:Chapter 4
00:22:24.280 : en:Chapter 5
00:26:55.600 : en:Chapter 6
00:33:32.320 : en:Chapter 7
00:40:30.120 : en:Chapter 8
00:48:38.720 : en:Chapter 9
00:55:27.680 : en:Chapter 10
00:58:44.920 : en:Chapter 11
01:05:04.760 : en:Chapter 12



   Похожие торренты   Торрент   Размер 
В этой теме нет новых непрочитанных сообщений. Юность Петра, В начале славных дел (1980) DVDRip-AVC

345 | 34

4.22 ГБ

В этой теме нет новых непрочитанных сообщений. Назначение (1980) DVDRip-AVC от KORSAR

26 | 1

2.1 ГБ

В этой теме нет новых непрочитанных сообщений. Журнал Юность - Сборник избранных рассказов из журналов Юность за 1964 год (1964) FB2

7 | 10

20.15 МБ

В этой теме нет новых непрочитанных сообщений. Петля Ориона (1980) DVDRip-AVC от KORSAR

15 | 0

1.49 ГБ

В этой теме нет новых непрочитанных сообщений. Антарктическая повесть (1980) SATRip-AVC от KORSAR

20 | 0

3.73 ГБ

В этой теме нет новых непрочитанных сообщений. Мы смерти смотрели в лицо (1980) DVDRip-AVC от KORSAR

22 | 1

1.08 ГБ

В этой теме нет новых непрочитанных сообщений. Чёрная курица, или подземные жители (1980) DVDRip-AVC от KORSAR

19 | 4

1.19 ГБ




Вы не можете начинать темы
Вы не можете отвечать на сообщения
Вы не можете редактировать свои сообщения
Вы не можете удалять свои сообщения
Вы не можете добавлять вложения

Перейти:  
 Вход
ppkBB3cker v.2 © 2008-2014 @ PPK
[ Time : 0.017s | 15 Queries | GZIP : Off ]

cron