img image001 image001 image001 image001 image001 image001 image001 image001 image001 image001 image001 image001 image001 image001 image001 image001

Planets Sun Sun Sun
Статистика раздачи
Автор: Снежана | Размер: 797.33 МБ | Добавлен: 26 сен 2018
Раздают: 0    Качают: 0
Скачать торрент
Скачать торрент
Описание торрента

СообщениеДобавлено: 26 сен 2018 

Информация о фильме
Название: Метро
Год выхода: 2012
Жанр: Триллер, драма
Режиссер: Антон Мегердичев
В ролях: Сергей Пускепалис (Гарин), Анатолий Белый (Константинов), Светлана Ходченкова (Ирина), Анфиса Вистингаузен (Ксюша), Алексей Бардуков (Денис), Катерина Шпица (Алиса), Елена Панова (Галочка), Станислав Дужников (Михаил), Кирилл Плетнёв (Назимов), Иван Макаревич (помощник машиниста), Владимир Стержаков (Буров), Михаил Фатеев (Клоков)
О фильме: Широко развернувшееся в центре Москвы строительство новых зданий приводит к тому, что в одном из тоннелей метро между двумя станциями возникает трещина. Никто себе и представить не мог, что в результате нарушения герметичности перекрытия в тоннель хлынет вода из Москва-реки, и сотни пассажиров поезда окажутся во власти надвигающегося потопа. Бешеный поток воды грозит не только обрушением тоннелей метро, но и разрушением всего города.

Страна: Россия
Продолжительность: 02:11:45
Перевод: Не требуется
Субтитры: Нет
Файл
Кодек: XviD
Качество: HDRip
Видео: 640x272 (2.35:1), 23.976 fps, XviD build 73 ~708 kbps avg, 0.17 bit/pixel
Звук: 48 kHz, MPEG Layer 3, 2 ch, ~128.00 kbps avg
General
Complete name : Metro.2012.HDRip.ot.Portablius.avi
Format : AVI
Format/Info : Audio Video Interleave
File size : 797 MiB
Duration : 2 h 11 min
Overall bit rate : 846 kb/s
Writing application : VirtualDubMod 1.5.10.3 | www.virtualdub-fr.org || (build 2550/release)
Writing library : VirtualDubMod build 2550/release
Video
ID : 0
Format : MPEG-4 Visual
Format profile : Advanced Simple@L5
Format settings, BVOP : 1
Format settings, QPel : No
Format settings, GMC : No warppoints
Format settings, Matrix : Custom
Codec ID : XVID
Codec ID/Hint : XviD
Duration : 2 h 11 min
Bit rate : 709 kb/s
Width : 640 pixels
Height : 272 pixels
Display aspect ratio : 2.35:1
Frame rate : 23.976 (24000/1001) FPS
Color space : YUV
Chroma subsampling : 4:2:0
Bit depth : 8 bits
Scan type : Progressive
Compression mode : Lossy
Bits/(Pixel*Frame) : 0.170
Stream size : 668 MiB (84%)
Writing library : XviD 73
Audio
ID : 1
Format : MPEG Audio
Format version : Version 1
Format profile : Layer 3
Codec ID : 55
Codec ID/Hint : MP3
Duration : 2 h 11 min
Bit rate mode : Constant
Bit rate : 128 kb/s
Channel(s) : 2 channels
Sampling rate : 48.0 kHz
Compression mode : Lossy
Stream size : 121 MiB (15%)
Alignment : Aligned on interleaves
Interleave, duration : 42 ms (1.00 video frame)
Interleave, preload duratio : 504 ms
Writing library : LAME3.99r
Encoding settings : -m s -V 4 -q 2 -lowpass 17 -b 128



   Похожие торренты   Торрент   Размер 
В этой теме нет новых непрочитанных сообщений. Метро (2012) HDRip от Scarabey | France Transfer

103 | 22

794.39 МБ

В этой теме нет новых непрочитанных сообщений. Метро (2012) HDRip от Scarabey | France Transfer

1317 | 139

1.45 ГБ

В этой теме нет новых непрочитанных сообщений. Метро (2012) BDRip-AVC от ExKinoRay | FRE-Transfer

24 | 0

744.84 МБ

В этой теме нет новых непрочитанных сообщений. Метро (2012) BDRip 720p от HELLYWOOD | FRE-Transfer

143 | 37

5.68 ГБ

В этой теме нет новых непрочитанных сообщений. Метро (2012) BDRip 720p от KORSAR | GER Transfer

14 | 2

6.57 ГБ

В этой теме нет новых непрочитанных сообщений. Черновик (2018) HDRip от Portablius | GER Transfer | Лицензия

40 | 0

746.57 МБ

В этой теме нет новых непрочитанных сообщений. Неудержимые 2 / The Expendables 2 (2012) HDRip от Portablius | A

7 | 0

747.48 МБ




Вы не можете начинать темы
Вы не можете отвечать на сообщения
Вы не можете редактировать свои сообщения
Вы не можете удалять свои сообщения
Вы не можете добавлять вложения

Перейти:  
 Вход
ppkBB3cker v.2 © 2008-2014 @ PPK
[ Time : 0.028s | 16 Queries | GZIP : Off ]

cron