img image001 image001 image001 image001 image001 image001 image001 image001 image001 image001 image001 image001 image001 image001 image001 image001

Planets Sun Sun Sun
Статистика раздачи
Автор: Снежана | Размер: 1.09 ГБ | Добавлен: 26 сен 2018
Раздают: 10    Качают: 0
Скачать торрент
Скачать торрент
Описание торрента

СообщениеДобавлено: 26 сен 2018 

Страна: СССР
Производство: Свердловская киностудия
Жанр: драма
Год выпуска: 1961
Продолжительность: 01:22:58
Перевод: Не требуется
Cубтитры: нет
Оригинальная аудиодорожка: русский
Режиссер: Рафаил Гольдин
В ролях:
Афанасий Кочетков, Евгений Лазарев, Валентина Пугачёва, Анна Обручева, Леонид Харитонов, Виктор Уральский, Людмила Маркелия, Юрий Медведев, Адольф Ильин, Анатолий Ромашин...
Об актёрах подробней
Описание:
Новый заводской поселок на Урале. Машиностроительный завод получает рекламацию от строителей ГЭС по поломке одного из экскаваторов. Строители считают, что поломка произошла из-за заводского брака. Чтобы установить истинную причину, от завода на ГЭС направляют комиссию во главе с Романом (Афанасий Кочетков), в которую входит и его друг, первоклассный слесарь Петр (Евгений Лазарев). Роман узнает, что жена полюбила его напарника по работе Петра.






Источник: DVD5 R5
Качество видео: DVDRip
Формат видео: AVI
Видео: 688х512 (4:3), 25,000 кадров/сек, XviD ~ 1484 kbps avg, 0.169 bit/pixel
Аудио: 48 kHz, Dolby Digital AC3 5.1, 384 kbps
Раздача от:
Общее
Полное имя : Dlinnyy.den.1961.DVDRip_[New-team]_by_AVP_Studio.avi
Формат : AVI
Формат/Информация : Audio Video Interleave
Размер файла : 1,09 Гбайт
Продолжительность : 1 ч. 22 м.
Общий поток : 1878 Кбит/сек
Программа кодирования : VirtualDubMod 1.5.10.3 | www.virtualdub-fr.org || (build 2550/release)
Библиотека кодирования : VirtualDubMod build 2550/release
Видео
Идентификатор : 0
Формат : MPEG-4 Visual
Профиль формата : Advanced Simple@L5
Настройки формата : BVOP1 / Custom Matrix
Параметр BVOP формата : 1
Параметр QPel формата : Нет
Параметр GMC формата : Без точки перехода
Параметр матрицы формата : Выборочная
Идентификатор кодека : XVID
Идентификатор кодека/Подсказка : XviD
Продолжительность : 1 ч. 22 м.
Битрейт : 1484 Кбит/сек
Ширина : 688 пикселей
Высота : 512 пикселей
Соотношение сторон : 4:3
Частота кадров : 25,000 кадров/сек
Цветовое пространство : YUV
Субдискретизация насыщенности : 4:2:0
Битовая глубина : 8 бит
Тип развёртки : Прогрессивная
Метод сжатия : С потерями
Бит/(Пиксели*Кадры) : 0.169
Размер потока : 881 Мбайт (79%)
Библиотека кодирования : XviD 73
Аудио
Идентификатор : 1
Формат : AC-3
Формат/Информация : Audio Coding 3
Коммерческое название : Dolby Digital
Идентификатор кодека : 2000
Продолжительность : 1 ч. 22 м.
Вид битрейта : Постоянный
Битрейт : 384 Кбит/сек
Каналы : 6 каналов
Channel layout : L R C LFE Ls Rs
Частота : 48,0 КГц
Частота кадров : 31,250 кадров/сек (1536 SPF)
Битовая глубина : 16 бит
Метод сжатия : С потерями
Размер потока : 228 Мбайт (20%)
Выравнивание : Разделение по промежуткам
Продолжительность промежутка : 40 мс. (1,00 видеокадр)
Время предзагрузки промежутка : 500 мс





   Похожие торренты   Торрент   Размер 
В этой теме нет новых непрочитанных сообщений. Длинный день (1961) DVDRip-AVC от New-Team

14 | 4

1.09 ГБ

В этой теме нет новых непрочитанных сообщений. Казаки (1961) DVDRip от New-Team

23 | 4

1.09 ГБ

В этой теме нет новых непрочитанных сообщений. Казаки (1961) DVDRip-AVC от New-Team

18 | 0

1.09 ГБ

В этой теме нет новых непрочитанных сообщений. Високосный год (1961) DVDRip от New-Team

12 | 0

1.09 ГБ

В этой теме нет новых непрочитанных сообщений. Високосный год (1961) DVDRip-AVC от New-Team

5 | 0

1.09 ГБ

В этой теме нет новых непрочитанных сообщений. Командировка (1961) DVDRip-AVC от New-Team

7 | 0

744.19 МБ

В этой теме нет новых непрочитанных сообщений. В трудный час (1961) DVDRip от New-Team

13 | 0

1.09 ГБ




Вы не можете начинать темы
Вы не можете отвечать на сообщения
Вы не можете редактировать свои сообщения
Вы не можете удалять свои сообщения
Вы не можете добавлять вложения

Перейти:  
 Вход
ppkBB3cker v.2 © 2008-2014 @ PPK
[ Time : 0.027s | 16 Queries | GZIP : Off ]

cron