img image001 image001 image001 image001 image001 image001 image001 image001 image001 image001 image001 image001 image001 image001 image001

Planets Sun Sun Sun
Статистика раздачи
Автор: Снежана | Размер: 1.24 ГБ | Добавлен: 26 сен 2018
Раздают: 22    Качают: 1
Скачать торрент
Скачать торрент
Описание торрента

СообщениеДобавлено: 26 сен 2018 

Название: Старомодная комедия
Год выхода: 1978
Жанр: Мелодрама, Комедия
Режиссер: Эра Савельева, Татьяна Березанцева
В ролях: Алиса Фрейндлих, Игорь Владимиров
О фильме: Кассирша цирка постоянно нарушает распорядок дня санатория. Главврач крайне раздражен, но постепенно обнаруживает, что испытывает к своей недисциплинированной пациентке чувство, отличное от раздражения…
Выпущено: СССР
Продолжительность: 01:29:00
Перевод: не требуется
Релиз от:
Кодек: х264
Качество: DVDRip-AVC
Видео: MPEG-4 AVC, 720x376@768x376, 25 fps, 1800 Кбит/с
Звук: AC3, 2 ch, 192 Кбит/с

Общее
Уникальный идентификатор : 229479406081215994857081428986124870754 (0xACA420402C453B0F8D0046502668A462)
Полное имя : D:Старомодная комедия_1978-DVDRip-AVC.mkv
Формат : Matroska
Версия формата : Version 2
Размер файла : 1,24 Гбайт
Продолжительность : 1 ч. 29 м.
Общий поток : 1994 Кбит/сек
Дата кодирования : UTC 2016-10-14 11:40:06
Программа кодирования : mkvmerge v5.8.0 ('No Sleep / Pillow') built on Sep 2 2012 15:37:04
Библиотека кодирования : libebml v1.2.3 + libmatroska v1.3.0
Видео
Идентификатор : 1
Формат : AVC
Формат/Информация : Advanced Video Codec
Профиль формата : High@L4.1
Параметр CABAC формата : Да
Параметр ReFrames формата : 14 кадров
Идентификатор кодека : V_MPEG4/ISO/AVC
Продолжительность : 1 ч. 29 м.
Битрейт : 1800 Кбит/сек
Ширина : 720 пикселей
Высота : 376 пикселей
Соотношение сторон : 2,043
Режим частоты кадров : Постоянный
Частота кадров : 25,000 кадров/сек
Цветовое пространство : YUV
Субдискретизация насыщенности : 4:2:0
Битовая глубина : 8 бит
Тип развёртки : Прогрессивная
Бит/(Пиксели*Кадры) : 0.266
Размер потока : 1,10 Гбайт (88%)
Заголовок : korsar.tv
Библиотека кодирования : x264 core 148 r2721kMod 72d53ab
Настройки программы : cabac=1 / ref=14 / deblock=1:-2:-2 / analyse=0x3:0x133 / me=umh / subme=10 / psy=1 / fade_compensate=0.00 / psy_rd=1.05:0.10 / mixed_ref=1 / me_range=32 / chroma_me=1 / trellis=2 / 8x8dct=1 / cqm=0 / deadzone=21,11 / fast_pskip=0 / chroma_qp_offset=-3 / threads=12 / lookahead_threads=2 / sliced_threads=0 / nr=0 / decimate=0 / interlaced=0 / bluray_compat=0 / constrained_intra=0 / fgo=0 / bframes=10 / b_pyramid=2 / b_adapt=2 / b_bias=0 / direct=3 / weightb=1 / open_gop=0 / weightp=2 / keyint=250 / keyint_min=25 / scenecut=40 / intra_refresh=0 / rc=2pass / mbtree=0 / bitrate=1800 / ratetol=1.0 / qcomp=0.63 / qpmin=0 / qpmax=39 / qpstep=4 / cplxblur=20.0 / qblur=0.5 / ip_ratio=1.25 / pb_ratio=1.30 / aq=1:1.00
Язык : English
Default : Да
Forced : Нет
Цветовой диапазон : Limited
Основные цвета : BT.601 PAL
Характеристики трансфера : BT.470 System B, BT.470 System G
Коэффициенты матрицы : BT.601
Аудио
Идентификатор : 2
Формат : AC-3
Формат/Информация : Audio Coding 3
Расширение режима : CM (complete main)
Параметр Endianness формата : Big
Идентификатор кодека : A_AC3
Продолжительность : 1 ч. 29 м.
Вид битрейта : Постоянный
Битрейт : 192 Кбит/сек
Каналы : 2 канала
Расположение каналов : Front: L R
Частота : 48,0 КГц
Метод сжатия : С потерями
Размер потока : 122 Мбайт (10%)
Язык : Russian
Default : Да
Forced : Нет
Меню
00:00:00.000 : ru:Chapter 1
00:11:08.480 : ru:Chapter 2
00:20:55.960 : ru:Chapter 3
00:29:17.560 : ru:Chapter 4
00:31:53.560 : ru:Chapter 5
00:41:36.680 : ru:Chapter 6
00:50:44.200 : ru:Chapter 7
00:55:10.600 : ru:Chapter 8
01:04:00.760 : ru:Chapter 9
01:11:11.120 : ru:Chapter 10
01:16:02.440 : ru:Chapter 11
01:24:13.840 : ru:Chapter 12

   Похожие торренты   Торрент   Размер 
В этой теме нет новых непрочитанных сообщений. Щелкунчик / The Nutcracker (1978) DVDRip-AVC от KORSAR

5 | 0

2.07 ГБ

В этой теме нет новых непрочитанных сообщений. Лицо на мишени (1978) SATRip-AVC от KORSAR

5 | 0

2.32 ГБ

В этой теме нет новых непрочитанных сообщений. Исправительный срок / Straight Time (1978) WEB-DL 1080p от KORSAR | P, A

0 | 0

11.28 ГБ

В этой теме нет новых непрочитанных сообщений. Последняя невеста Змея Горыныча (1978) BDRip 1080p от KORSAR

3 | 3

1.68 ГБ

В этой теме нет новых непрочитанных сообщений. Склока / La Zizanie (Клод Зиди) [1978, комедия, HDRip-AVC] MVO

0 | 0

1.46 ГБ

В этой теме нет новых непрочитанных сообщений. Дешёвый детектив / The Cheap Detective (1978) WEB-DLRip 720p от KORSAR | P

3 | 0

3.76 ГБ

В этой теме нет новых непрочитанных сообщений. Все решается в среду / Big Wednesday (1978) BDRip 720p от KORSAR | P, A

0 | 3

5.82 ГБ




Вы не можете начинать темы
Вы не можете отвечать на сообщения
Вы не можете редактировать свои сообщения
Вы не можете удалять свои сообщения
Вы не можете добавлять вложения

Перейти:  
Контактная информация: rstracker[пёсик]yandex.ru
 Вход
ppkBB3cker v.2 © 2008-2014 @ PPK
[ Time : 0.024s | 17 Queries | GZIP : Off ]

cron