img image001 image001 image001 image001 image001 image001 image001 image001 image001 image001 image001 image001 image001 image001 image001 image001

Planets Sun Sun Sun
Статистика раздачи
Автор: Снежана | Размер: 3.37 ГБ | Добавлен: 05 окт 2018
Раздают: 8    Качают: 0
Скачать торрент
Скачать торрент
Описание торрента

СообщениеДобавлено: 05 окт 2018 

Адмирал Ушаков. Корабли штурмуют бастионы

Жанр: биографический
Год выпуска: 1953
Страна: СССР
Продолжительность: 01:41:12 + 01:29:37
Режиссер: Михаил Ромм
В ролях: Иван Переверзев, Борис Ливанов, Николай Свободин, Николай Чистяков, Геннадий Юдин, Владимир Дружников, Алексей Алексеев, Сергей Бондарчук, Михаил Пуговкин, Николай Хрящиков, Георгий Юматов, Павел Волков, Ольга Жизнева, Николай Волков старший, Иван Соловьёв, Владимир Этуш, Павел Шпрингфельд, Григорий Шпигель, Вахтанг Туманов, Лев Фенин, Вячеслав Гостинский, Готлиб Ронинсон, Виктор Балашов, Андрей Файт, Эммануил Геллер, Петр Любешкин, Владимир Балашов, Виктор Авдюшко, Елена Максимова, Ян Янакиев, Петр Соболевский, Георгий Георгиу
Описание: Адмирал Ушаков: Историко-биографический фильм о создании и первых победах русского флота на Черном море под руководством великого русского флотоводца и патриота России, адмирала Федора Федоровича Ушакова (1744-1817).
Описание: Корабли штурмуют бастионы: Франция начинает захватнические войны. Русские и союзные войска, освобождающие Италию, возглавляет Александр Васильевич Суворов. Победу в крепости Корфу обеспечивает операция адмирала Ушакова.
Релиз от:
Кодек: х264
Качество: DVDRip-AVC
Видео: MPEG-4 AVC, 694x572@748x572, 696x574@750x574, 25 fps, 2121 Кбит/с
Звук: AC3, 2 ch, 224 Кбит/с
Субтитры: Русские (только для адмирал Ушаков)

x264 [info]: frame I:828 Avg QP:17.06 size: 65611
x264 [info]: frame P:39153 Avg QP:18.82 size: 26693
x264 [info]: frame B:111843 Avg QP:21.42 size: 4879
x264 [info]: consecutive B-frames: 2.6% 5.1% 16.3% 30.0% 21.0% 20.7% 2.5% 1.1% 0.4% 0.2% 0.0%
Общее
Уникальный идентификатор : 214614276588529696828222084314316828667 (0xA17534C80C34E6B3A2783460147A6FFB)
Полное имя : D:Адмирал Ушаков. Корабли штурмуют бастионы_1953-DVDRip-AVC_KORSARАдмирал Ушаков.mkv
Формат : Matroska
Версия формата : Version 2
Размер файла : 1,69 Гбайт
Продолжительность : 1 ч. 41 м.
Общий поток : 2393 Кбит/сек
Название фильма : Адмирал Ушаков_1953-DVDRip-AVC_KORSAR
Дата кодирования : UTC 2018-09-29 12:59:05
Программа кодирования : mkvmerge v5.8.0 ('No Sleep / Pillow') built on Sep 2 2012 15:37:04
Библиотека кодирования : libebml v1.2.3 + libmatroska v1.3.0
Видео
Идентификатор : 1
Формат : AVC
Формат/Информация : Advanced Video Codec
Профиль формата : High@L4.1
Параметр CABAC формата : Да
Параметр RefFrames формата : 15 кадров
Идентификатор кодека : V_MPEG4/ISO/AVC
Продолжительность : 1 ч. 41 м.
Битрейт : 2121 Кбит/сек
Ширина : 694 пикселя
Высота : 572 пикселя
Соотношение сторон : 4:3
Режим частоты кадров : Постоянный
Частота кадров : 25,000 кадров/сек
Цветовое пространство : YUV
Субдискретизация насыщенности : 4:2:0
Битовая глубина : 8 бит
Тип развёртки : Прогрессивная
Бит/(Пиксели*Кадры) : 0.214
Размер потока : 1,50 Гбайт (89%)
Библиотека кодирования : x264 core 152 r2851kMod ba24899
Настройки программы : cabac=1 / ref=15 / deblock=1:-2:-1 / analyse=0x3:0x133 / me=umh / subme=10 / psy=1 / fade_compensate=0.00 / psy_rd=1.05:0.10 / mixed_ref=1 / me_range=40 / chroma_me=1 / trellis=2 / 8x8dct=1 / cqm=0 / deadzone=21,11 / fast_pskip=1 / chroma_qp_offset=-3 / threads=12 / lookahead_threads=3 / sliced_threads=0 / nr=0 / decimate=1 / interlaced=0 / bluray_compat=0 / constrained_intra=0 / bframes=10 / b_pyramid=2 / b_adapt=2 / b_bias=0 / direct=1 / weightb=1 / open_gop=0 / weightp=2 / keyint=250 / keyint_min=25 / scenecut=40 / intra_refresh=0 / rc=crf / mbtree=0 / crf=17.3000 / qcomp=0.63 / qpmin=0 / qpmax=39 / qpstep=4 / ip_ratio=1.40 / pb_ratio=1.30 / aq=1:1.00
Язык : English
Default : Да
Forced : Нет
Цветовой диапазон : Limited
Основные цвета : BT.601 PAL
Характеристики трансфера : BT.470 System B, BT.470 System G
Коэффициенты матрицы : BT.601
Аудио
Идентификатор : 2
Формат : AC-3
Формат/Информация : Audio Coding 3
Параметр Endianness формата : Big
Идентификатор кодека : A_AC3
Продолжительность : 1 ч. 41 м.
Вид битрейта : Постоянный
Битрейт : 224 Кбит/сек
Каналы : 2 канала
Расположение каналов : Front: L R
Частота : 48,0 КГц
Частота кадров : 31,250 кадров/сек (1536 SPF)
Битовая глубина : 16 бит
Метод сжатия : С потерями
Размер потока : 162 Мбайт (9%)
Язык : Russian
Default : Да
Forced : Нет
Текст
Идентификатор : 3
Формат : UTF-8
Идентификатор кодека : S_TEXT/UTF8
Идентификатор кодека/Информация : UTF-8 Plain Text
Язык : Russian
Default : Нет
Forced : Нет
Меню
00:00:00.000 : en:Chapter 1
00:08:42.000 : en:Chapter 2
00:23:50.400 : en:Chapter 3
00:35:09.000 : en:Chapter 4
00:54:13.800 : en:Chapter 5
01:19:00.000 : en:Chapter 6
01:31:36.000 : en:Chapter 7




   Похожие торренты   Торрент   Размер 
В этой теме нет новых непрочитанных сообщений. Адмирал Ушаков. Корабли штурмуют бастионы (1953) DVD9

1 | 0

7.6 ГБ

В этой теме нет новых непрочитанных сообщений. Адмирал Ушаков (1953) DVDRip от New-Team

45 | 15

2.9 ГБ

В этой теме нет новых непрочитанных сообщений. Адмирал Ушаков (1953) DVDRip-AVC от New-Team

140 | 14

2.91 ГБ

В этой теме нет новых непрочитанных сообщений. Адмирал Ушаков (1953) DVDRip от New-Team

199 | 5

1.46 ГБ

В этой теме нет новых непрочитанных сообщений. Васса Железнова (1953) DVDRip-AVC от KORSAR

15 | 0

1.8 ГБ

В этой теме нет новых непрочитанных сообщений. Незнакомец с револьвером / The Stranger Wore a Gun (1953) BDRip 1080p от KORSAR | L1

4 | 1

6.4 ГБ

В этой теме нет новых непрочитанных сообщений. Discovery. Могучие корабли (Гигантские корабли) / Mighty Ships [01x04] (2008-2015) HDTVRip 720p | P1

10 | 0

1.13 ГБ




Вы не можете начинать темы
Вы не можете отвечать на сообщения
Вы не можете редактировать свои сообщения
Вы не можете удалять свои сообщения
Вы не можете добавлять вложения

Перейти:  
 Вход
ppkBB3cker v.2 © 2008-2014 @ PPK
[ Time : 0.620s | 15 Queries | GZIP : Off ]

cron