img image001 image001 image001 image001 image001 image001 image001 image001 image001 image001 image001 image001 image001 image001 image001 image001

Planets Sun Sun Sun
Статистика раздачи
Автор: Снежана | Размер: 2.93 ГБ | Добавлен: 05 окт 2018
Раздают: 14    Качают: 0
Скачать торрент
Скачать торрент
Описание торрента

СообщениеДобавлено: 05 окт 2018 

По прозвищу «Зверь»

Жанр: Боевик
Год выпуска: 1990
Страна: СССР
Продолжительность: 01:23:30
Режиссёр: Александр Муратов
В ролях: Дмитрий Певцов, Армен Джигарханян, Юрий Назаров, Валерий Носик, Лев Прыгунов, Владимир Самойлов, Борис Щербаков, Виктор Филиппов, Борис Клюев, Игорь Ясулович, Татьяна Скороходова, Евгений Евстигнеев, Владимир Аникин, Владимир Еремин
Описание: По детективному роману Виктора Доценко. Савелий Говорков возвращается из Афганистана. Молодому парню приходится вступить в неравный бой с мафией. Однако криминальные авторитеты не прощают тех, кто встает у них на пути. Говоркова подставляют, и он оказывается за решеткой. Теперь цель его жизни - отомстить...
Релиз от:
Качество видео: WEBRip-AVC
Формат видео: MKV
Видео: MPEG-4 AVC, 828х648, 25.000 fps, ~4674 Kbps
Аудио: AC3, 2 ch, 256 kbps
Субтитры: Русские

x264 [info]: frame I:667 Avg QP:17.65 size:117688
x264 [info]: frame P:28831 Avg QP:19.31 size: 60812
x264 [info]: frame B:95773 Avg QP:21.76 size: 12334
x264 [info]: consecutive B-frames: 2.0% 2.2% 7.1% 29.2% 26.8% 31.8% 0.9% 0.1% 0.0%
Общее
Уникальный идентификатор : 210652397482183137169689889136126750938 (0x9E7A2D0F6FB41CB1A710D36968E070DA)
Полное имя : D:По прозвищу зверь_1990-WEBRip-AVC_KORSAR.mkv
Формат : Matroska
Версия формата : Version 2
Размер файла : 2,93 Гбайт
Продолжительность : 1 ч. 23 м.
Общий поток : 5030 Кбит/сек
Название фильма : По прозвищу зверь_1990-WEBRip-AVC_KORSAR
Дата кодирования : UTC 2018-09-26 16:39:43
Программа кодирования : mkvmerge v5.8.0 ('No Sleep / Pillow') built on Sep 2 2012 15:37:04
Библиотека кодирования : libebml v1.2.3 + libmatroska v1.3.0
Видео
Идентификатор : 1
Формат : AVC
Формат/Информация : Advanced Video Codec
Профиль формата : High@L4.1
Параметр CABAC формата : Да
Параметр RefFrames формата : 15 кадров
Идентификатор кодека : V_MPEG4/ISO/AVC
Продолжительность : 1 ч. 23 м.
Битрейт : 4674 Кбит/сек
Ширина : 828 пикселей
Высота : 648 пикселей
Соотношение сторон : 1,278
Режим частоты кадров : Постоянный
Частота кадров : 25,000 кадров/сек
Цветовое пространство : YUV
Субдискретизация насыщенности : 4:2:0
Битовая глубина : 8 бит
Тип развёртки : Прогрессивная
Бит/(Пиксели*Кадры) : 0.348
Размер потока : 2,73 Гбайт (93%)
Библиотека кодирования : x264 core 152 r2851kMod ba24899
Настройки программы : cabac=1 / ref=15 / deblock=1:-2:-1 / analyse=0x3:0x133 / me=umh / subme=10 / psy=1 / fade_compensate=0.00 / psy_rd=1.05:0.08 / mixed_ref=1 / me_range=32 / chroma_me=1 / trellis=2 / 8x8dct=1 / cqm=0 / deadzone=21,11 / fast_pskip=1 / chroma_qp_offset=-3 / threads=12 / lookahead_threads=2 / sliced_threads=0 / nr=0 / decimate=1 / interlaced=0 / bluray_compat=0 / constrained_intra=0 / bframes=9 / b_pyramid=2 / b_adapt=2 / b_bias=0 / direct=1 / weightb=1 / open_gop=0 / weightp=2 / keyint=250 / keyint_min=25 / scenecut=40 / intra_refresh=0 / rc=crf / mbtree=0 / crf=17.7000 / qcomp=0.63 / qpmin=0 / qpmax=39 / qpstep=4 / ip_ratio=1.40 / pb_ratio=1.30 / aq=1:0.80
Язык : English
Default : Да
Forced : Нет
Цветовой диапазон : Limited
Основные цвета : BT.709
Характеристики трансфера : BT.709
Коэффициенты матрицы : BT.709
Аудио
Идентификатор : 2
Формат : AC-3
Формат/Информация : Audio Coding 3
Параметр Endianness формата : Big
Идентификатор кодека : A_AC3
Продолжительность : 1 ч. 23 м.
Вид битрейта : Постоянный
Битрейт : 256 Кбит/сек
Каналы : 2 канала
Расположение каналов : Front: L R
Частота : 48,0 КГц
Частота кадров : 31,250 кадров/сек (1536 SPF)
Битовая глубина : 16 бит
Метод сжатия : С потерями
Размер потока : 153 Мбайт (5%)
Заголовок : Дом кино
Язык : Russian
Default : Да
Forced : Нет
Текст
Идентификатор : 3
Формат : UTF-8
Идентификатор кодека : S_TEXT/UTF8
Идентификатор кодека/Информация : UTF-8 Plain Text
Язык : Russian
Default : Нет
Forced : Нет
Меню
00:00:00.000 : en:Chapter 1
00:22:24.240 : en:Chapter 2
00:29:28.840 : en:Chapter 3
00:37:53.440 : en:Chapter 4
00:45:48.680 : en:Chapter 5
00:59:18.120 : en:Chapter 6
01:07:29.920 : en:Chapter 7
01:11:33.400 : en:Chapter 8
01:14:42.840 : en:Chapter 9
01:23:30.800 : en:Chapter 10




   Похожие торренты   Торрент   Размер 
В этой теме нет новых непрочитанных сообщений. ...По прозвищу «Зверь» (1990) DVDRip от New-Team

7 | 27

1.46 ГБ

В этой теме нет новых непрочитанных сообщений. ...По прозвищу «Зверь» (1990) DVDRip-AVC от New-Team

661 | 48

1.46 ГБ

В этой теме нет новых непрочитанных сообщений. ...По прозвищу «Зверь» (1990) DVDRip от New-Team

404 | 93

744.59 МБ

В этой теме нет новых непрочитанных сообщений. Девушка по прозвищу Зверь / Tiger Girl (Джейкоб Ласс) [2018, боевик, WEBDLRip] MVO

65 | 4

1.37 ГБ

В этой теме нет новых непрочитанных сообщений. Быстрые перемены / Quick Change (1990) WEBRip 720p от KORSAR | D, P, A

4 | 0

6.09 ГБ

В этой теме нет новых непрочитанных сообщений. Заложница (1990) DVDRip-AVC от KORSAR

4 | 0

2.19 ГБ

В этой теме нет новых непрочитанных сообщений. Я объявляю вам войну (1990) DVDRip-AVC от KORSAR

14 | 0

1.77 ГБ




Вы не можете начинать темы
Вы не можете отвечать на сообщения
Вы не можете редактировать свои сообщения
Вы не можете удалять свои сообщения
Вы не можете добавлять вложения

Перейти:  
 Вход
ppkBB3cker v.2 © 2008-2014 @ PPK
[ Time : 0.031s | 15 Queries | GZIP : Off ]

cron