img image001 image001 image001 image001 image001 image001 image001 image001 image001 image001 image001 image001 image001 image001 image001 image001

Planets Sun Sun Sun
Статистика раздачи
Автор: Снежана | Размер: 1.09 ГБ | Добавлен: 16 окт 2018
Раздают: 12    Качают: 0
Скачать торрент
Скачать торрент
Описание торрента

СообщениеДобавлено: 16 окт 2018 

Страна: СССР
Производство: Мосфильм
Жанр: драма
Год выпуска: 1961
Продолжительность: 01:28:38
Перевод: Не требуется
Cубтитры: нет
Оригинальная аудиодорожка: русский
Режиссер: Анатолий Эфрос
В ролях:
Иннокентий Смоктуновский, Елена Фадеева, Василий Макаров, Елена Орлова, Виктория Ермольева, Михаил Логвинов, Валентин Никулин, Павел Шальнов, Евгений Агуров, Эмма Цесарская, Владимир Паперный, Марианна Вертинская, Николай Закиев, Лев Дуров, Николай Малюгин, Александра Денисова, Дмитрий Орловский, А. Белая, Алла Будницкая...
Об актёрах подробней
Описание:
По повести Веры Пановой «Времена года».
Геннадий Куприянов (Смоктуновский) работает на стройке. После постоянных ссор с женой герой уходит из дома к медсестре Зине. Ее сын Саша тоже работает на стройке. Ему не нравится Геннадий и парень не знает, как освободить мать от беспокойства и горечи, которые вошли в дом с приходом этого странного человека. Парень стал часто бывать у нового друга. Внимательные родители, умные спокойные разговоры, материальное благополучие - все здесь привлекает парня. Однако глава семьи - заведующий горторгом – давно работает на группу жуликов, орудующих в торговой сети. С ними же, незаметно для себя, оказался связанным и Геннадий Куприянов.





Источник: DVD5 R5
Качество видео: DVDRip
Формат видео: AVI
Видео: 688х512 (4:3), 25 fps, XviD ~ 1559 kbps avg, 0.177 bit/pixel
Аудио: 48 kHz, Dolby Digital AC3 2.0, 192 kbps
Раздача от:
Общее
Полное имя : Visokosnyy.god.1961.DVDRip_[New-team]_by_AVP_Studio.avi
Формат : AVI
Формат/Информация : Audio Video Interleave
Размер файла : 1,09 Гбайт
Продолжительность : 1 ч. 28 м.
Общий поток : 1761 Кбит/сек
Программа кодирования : VirtualDubMod 1.5.10.3 | www.virtualdub-fr.org || (build 2550/release)
Библиотека кодирования : VirtualDubMod build 2550/release
Видео
Идентификатор : 0
Формат : MPEG-4 Visual
Профиль формата : Advanced Simple@L5
Настройки формата : BVOP1 / Custom Matrix
Параметр BVOP формата : 1
Параметр QPel формата : Нет
Параметр GMC формата : Без точки перехода
Параметр матрицы формата : Выборочная
Идентификатор кодека : XVID
Идентификатор кодека/Подсказка : XviD
Продолжительность : 1 ч. 28 м.
Битрейт : 1559 Кбит/сек
Ширина : 688 пикселей
Высота : 512 пикселей
Соотношение сторон : 4:3
Частота кадров : 25,000 кадров/сек
Цветовое пространство : YUV
Субдискретизация насыщенности : 4:2:0
Битовая глубина : 8 бит
Тип развёртки : Прогрессивная
Метод сжатия : С потерями
Бит/(Пиксели*Кадры) : 0.177
Размер потока : 988 Мбайт (89%)
Библиотека кодирования : XviD 73
Аудио
Идентификатор : 1
Формат : AC-3
Формат/Информация : Audio Coding 3
Коммерческое название : Dolby Digital
Идентификатор кодека : 2000
Продолжительность : 1 ч. 28 м.
Вид битрейта : Постоянный
Битрейт : 192 Кбит/сек
Каналы : 2 канала
Channel layout : L R
Частота : 48,0 КГц
Частота кадров : 31,250 кадров/сек (1536 SPF)
Битовая глубина : 16 бит
Метод сжатия : С потерями
Размер потока : 122 Мбайт (11%)
Выравнивание : Разделение по промежуткам
Продолжительность промежутка : 40 мс. (1,00 видеокадр)
Время предзагрузки промежутка : 500 мс





   Похожие торренты   Торрент   Размер 
В этой теме нет новых непрочитанных сообщений. Високосный год (1961) DVDRip-AVC от New-Team

5 | 0

1.09 ГБ

В этой теме нет новых непрочитанных сообщений. В трудный час (1961) DVDRip-AVC от New-Team

29 | 0

1.09 ГБ

В этой теме нет новых непрочитанных сообщений. В трудный час (1961) DVDRip от New-Team

13 | 0

1.09 ГБ

В этой теме нет новых непрочитанных сообщений. Командировка (1961) DVDRip-AVC от New-Team

7 | 0

744.19 МБ

В этой теме нет новых непрочитанных сообщений. Казаки (1961) DVDRip-AVC от New-Team

18 | 0

1.09 ГБ

В этой теме нет новых непрочитанных сообщений. Командировка (1961) DVDRip от New-Team

22 | 0

744.48 МБ

В этой теме нет новых непрочитанных сообщений. Казаки (1961) DVDRip от New-Team

23 | 4

1.09 ГБ




Вы не можете начинать темы
Вы не можете отвечать на сообщения
Вы не можете редактировать свои сообщения
Вы не можете удалять свои сообщения
Вы не можете добавлять вложения

Перейти:  
 Вход
ppkBB3cker v.2 © 2008-2014 @ PPK
[ Time : 0.021s | 16 Queries | GZIP : Off ]

cron