img image001 image001 image001 image001 image001 image001 image001 image001 image001 image001 image001 image001 image001 image001 image001 image001

Planets Sun Sun Sun
Статистика раздачи
Автор: Снежана | Размер: 745.84 МБ | Добавлен: 16 окт 2018
Раздают: 17    Качают: 0
Скачать торрент
Скачать торрент
Описание торрента

СообщениеДобавлено: 16 окт 2018 

Информация о фильме
Оригинальное название: Друзья друзей
Год выхода: 2013
Жанр: Комедия
Режиссер: Артем Аксененко, Араик Оганесян
В ролях: Нюша Шурочкина, Гарик Харламов, Юрий Стоянов, Николай Наумов, Александр Ильин мл., Тимур Батрутдинов, Александр Молочников, Андрей Гайдулян, Олег Верещагин, Александр Булатов
О фильме :
В канун Нового года пересекаются истории промоутера, впервые оставшегося дома с пятилетним ребенком, трех музыкантов из филармонии, решившихся на ограбление сурового бизнесмена, на домашнюю вечеринку к которому их отправил тот самый промоутер, и бедного студента, пригласившего на первое свидание в дорогой ресторан дочку того самого сурового бизнесмена. В результате, каждый из героев попадет в нелепые, пикантные, опасные, но все равно очень смешные ситуации, выбраться из которых им, конечно, помогут, друзья...

Страна: Россия
Студия: Enjoy Movies
Продолжительность: 01:30:27
Язык: Русский
Файл
Формат: MKV
Качество: HDRip-AVC
Видео: MPEG-4 AVC, 768x416, ~ 1076 Кбит/с
Аудио: AAC-HE, 2 ch, ~ 76 Кбит/с
Субтитры: Нет
Общее
Уникальный идентификатор : 170598013875321898047475226308316052434 (0x8057FB7A7936AEA9941517E700B53BD2)
Полное имя : D:MOVIESDruzya.druzej.2013.ExKinoRay.mkv
Формат : Matroska
Версия формата : Version 4 / Version 2
Размер файла : 746 Мбайт
Продолжительность : 1 ч. 30 м.
Общий поток : 1153 Кбит/сек
Дата кодирования : UTC 2018-10-10 05:20:27
Программа кодирования : mkvmerge v15.0.0 ('Duel with the Devil') 64-bit
Библиотека кодирования : libebml v1.3.5 + libmatroska v1.4.5
Видео
Идентификатор : 1
Формат : AVC
Формат/Информация : Advanced Video Codec
Профиль формата : High@L4.1
Параметр CABAC формата : Да
Параметр RefFrames формата : 12 кадров
Идентификатор кодека : V_MPEG4/ISO/AVC
Продолжительность : 1 ч. 30 м.
Битрейт : 1076 Кбит/сек
Ширина : 768 пикселей
Высота : 416 пикселей
Соотношение сторон : 1,85:1
Режим частоты кадров : Постоянный
Частота кадров : 24,000 кадра/сек
Цветовое пространство : YUV
Субдискретизация насыщенности : 4:2:0
Битовая глубина : 8 бит
Тип развёртки : Прогрессивная
Бит/(Пиксели*Кадры) : 0.140
Размер потока : 695 Мбайт (93%)
Библиотека кодирования : x264 core 152 r2851kMod ba24899
Настройки программы : cabac=1 / ref=12 / deblock=1:-3:-3 / analyse=0x3:0x133 / me=umh / subme=10 / psy=1 / fade_compensate=0.00 / psy_rd=1.00:0.14 / mixed_ref=1 / me_range=32 / chroma_me=1 / trellis=2 / 8x8dct=1 / cqm=0 / deadzone=21,11 / fast_pskip=0 / chroma_qp_offset=-3 / threads=6 / lookahead_threads=1 / sliced_threads=0 / nr=0 / decimate=0 / interlaced=0 / bluray_compat=0 / constrained_intra=0 / bframes=11 / b_pyramid=2 / b_adapt=2 / b_bias=0 / direct=3 / weightb=1 / open_gop=0 / weightp=2 / keyint=240 / keyint_min=23 / scenecut=40 / intra_refresh=0 / rc_lookahead=40 / rc=2pass / mbtree=1 / bitrate=1076 / ratetol=1.0 / qcomp=0.60 / qpmin=0 / qpmax=69 / qpstep=4 / cplxblur=20.0 / qblur=0.5 / ip_ratio=1.40 / aq=3:1.00
Default : Да
Forced : Нет
Аудио
Идентификатор : 2
Формат : AAC
Формат/Информация : Advanced Audio Codec
Профиль формата : HE-AAC / LC
Идентификатор кодека : A_AAC
Продолжительность : 1 ч. 30 м.
Битрейт : 76,0 Кбит/сек
Каналы : 2 канала
Расположение каналов : Front: L R
Частота : 48,0 КГц / 24,0 КГц
Частота кадров : 23,438 кадра/сек (1024 SPF)
Метод сжатия : С потерями
Задержка видео : 31 мс.
Размер потока : 49,2 Мбайт (7%)
Default : Да
Forced : Нет
Меню
00:00:00.000 : en:00:00:00.000
00:12:49.292 : en:00:12:49.292
00:23:00.417 : en:00:23:00.417
00:35:00.958 : en:00:35:00.958
00:44:41.708 : en:00:44:41.708
00:58:44.750 : en:00:58:44.750
01:09:09.583 : en:01:09:09.583
01:21:12.750 : en:01:21:12.750





   Похожие торренты   Торрент   Размер 
В этой теме нет новых непрочитанных сообщений. Друзья друзей (2013) BDRemux 1080p от ExKinoRay

17 | 8

20.67 ГБ

В этой теме нет новых непрочитанных сообщений. Друзья друзей (2013) HDRip | Лицензия

2089 | 109

1.37 ГБ

В этой теме нет новых непрочитанных сообщений. Друзья друзей (2013) HDRip от MediaClub | КПК

188 | 22

409.66 МБ

В этой теме нет новых непрочитанных сообщений. Друзья друзей (2013) HDRip от Sanjar & NeoJet | КПК | Лицензия

60 | 10

272.31 МБ

В этой теме нет новых непрочитанных сообщений. Друзья друзей (2013) DVB

517 | 16

2.16 ГБ

В этой теме нет новых непрочитанных сообщений. Друзья друзей (2013) SATRip от New-Team

60 | 6

744.85 МБ

В этой теме нет новых непрочитанных сообщений. Друзья друзей (2013) DVDRip | Лицензия

162 | 19

703.3 МБ




Вы не можете начинать темы
Вы не можете отвечать на сообщения
Вы не можете редактировать свои сообщения
Вы не можете удалять свои сообщения
Вы не можете добавлять вложения

Перейти:  
 Вход
ppkBB3cker v.2 © 2008-2014 @ PPK
[ Time : 0.039s | 16 Queries | GZIP : Off ]

cron