img image001 image001 image001 image001 image001 image001 image001 image001 image001 image001 image001 image001 image001 image001 image001 image001

Planets Sun Sun Sun
Статистика раздачи
Автор: Снежана | Размер: 185.84 МБ | Добавлен: 16 окт 2018
Раздают: 56    Качают: 3
Скачать торрент
Скачать торрент
Описание торрента

СообщениеДобавлено: 16 окт 2018 

Страна: СССР
Производство: Мосфильм
Жанр: комедия
Год выпуска: 1961
Продолжительность: 00:17:03
Перевод: Не требуется
Cубтитры: нет
Оригинальная аудиодорожка: русский
Режиссер: Глеб Комаровский
В ролях:
Михаил Жаров, Александр Бениаминов, Нина Агапова, Павел Винник, Нина Гребешкова, Эль Трактовенко...
Об актёрах подробней
Описание:
Отдыхая в крымском санатории, Николай Никанорович Старосельцев находит на пляже чужой бумажник и отдает его администрации санатория для возврата владельцу. Став находкой для скучающих массовиков-затейников, Николай Никанорович не выдерживает испытание славой - и преждевременно покидает курорт.





Исходник: S-VHS
Качество видео: VHSRip-AVC
Формат видео: MKV
Видео: 708->777x530 (3:2), 25,000 кадров/сек, H264 ~ 1332 kbps avg, 0.142 bit/pixel
Аудио: 48 kHz, Dolby Digital AC3 2.0, 192 kbps
Раздача от:
Общее
Полное имя : CHuzhoy.bumazhnik.1961.VHSRip-AVC_[New-team]_by_AVP_Studio.mkv
Формат : Matroska
Версия формата : Version 2
Размер файла : 186 Мбайт
Продолжительность : 17 м. 3 с.
Общий поток : 1524 Кбит/сек
Дата кодирования : UTC 2018-10-10 08:32:21
Программа кодирования : mkvmerge v6.1.0 ('Old Devil') built on Mar 4 2013 09:10:42
Библиотека кодирования : libebml v1.3.0 + libmatroska v1.4.0
Видео
Идентификатор : 1
Формат : AVC
Формат/Информация : Advanced Video Codec
Профиль формата : High@L4.1
Настройки формата : CABAC / 10 Ref Frames
Параметр CABAC формата : Да
Параметр RefFrames формата : 10 кадров
Идентификатор кодека : V_MPEG4/ISO/AVC
Продолжительность : 17 м. 3 с.
Битрейт : 1332 Кбит/сек
Ширина : 708 пикселей
Высота : 530 пикселей
Соотношение сторон : 3:2
Соотношение сторон в оригинале : 3:2
Режим частоты кадров : Постоянный
Частота кадров : 25,000 кадров/сек
Цветовое пространство : YUV
Субдискретизация насыщенности : 4:2:0
Битовая глубина : 8 бит
Тип развёртки : Прогрессивная
Бит/(Пиксели*Кадры) : 0.142
Размер потока : 159 Мбайт (85%)
Библиотека кодирования : x264 core 157 r2932 303c484
Настройки программы : cabac=1 / ref=10 / deblock=1:-2:-1 / analyse=0x3:0x113 / me=umh / subme=10 / psy=1 / psy_rd=1.00:0.00 / mixed_ref=1 / me_range=32 / chroma_me=1 / trellis=2 / 8x8dct=1 / cqm=0 / deadzone=21,11 / fast_pskip=1 / chroma_qp_offset=-2 / threads=6 / lookahead_threads=1 / sliced_threads=0 / nr=0 / decimate=0 / interlaced=0 / bluray_compat=0 / constrained_intra=0 / bframes=8 / b_pyramid=2 / b_adapt=2 / b_bias=0 / direct=3 / weightb=1 / open_gop=0 / weightp=2 / keyint=250 / keyint_min=25 / scenecut=40 / intra_refresh=0 / rc=2pass / mbtree=0 / bitrate=1332 / ratetol=1.0 / qcomp=0.60 / qpmin=0 / qpmax=69 / qpstep=4 / cplxblur=20.0 / qblur=0.5 / ip_ratio=1.40 / pb_ratio=1.30 / aq=1:1.00
Default : Да
Forced : Нет
Аудио
Идентификатор : 2
Формат : AC-3
Формат/Информация : Audio Coding 3
Коммерческое название : Dolby Digital
Идентификатор кодека : A_AC3
Продолжительность : 17 м. 3 с.
Вид битрейта : Постоянный
Битрейт : 192 Кбит/сек
Каналы : 2 канала
Channel layout : L R
Частота : 48,0 КГц
Частота кадров : 31,250 кадров/сек (1536 SPF)
Битовая глубина : 16 бит
Метод сжатия : С потерями
Размер потока : 23,4 Мбайт (13%)
Default : Да
Forced : Нет





   Похожие торренты   Торрент   Размер 
В этой теме нет новых непрочитанных сообщений. Чужой бумажник (1961) VHSRip от New-Team

22 | 0

186.27 МБ

В этой теме нет новых непрочитанных сообщений. Девчонка, с которой я дружил (1961) VHSRip-AVC от New-Team

6 | 4

1.09 ГБ

В этой теме нет новых непрочитанных сообщений. Девчонка, с которой я дружил (1961) VHSRip от New-Team

19 | 0

745.73 МБ

В этой теме нет новых непрочитанных сообщений. Украинская рапсодия (1961) VHSRip

91 | 8

1.36 ГБ

В этой теме нет новых непрочитанных сообщений. Украинская рапсодия (1961) VHSRip >DVD5

13 | 2

4.35 ГБ

В этой теме нет новых непрочитанных сообщений. Сказание о любви (Лейли и Меджнун) / Leyli və Məcnun (1961) VHSRip

25 | 10

1.78 ГБ

В этой теме нет новых непрочитанных сообщений. Чужой / Alien (1979) BDRip-AVC от New-Team | Director's Cut

119 | 14

745.43 МБ




Вы не можете начинать темы
Вы не можете отвечать на сообщения
Вы не можете редактировать свои сообщения
Вы не можете удалять свои сообщения
Вы не можете добавлять вложения

Перейти:  
 Вход
ppkBB3cker v.2 © 2008-2014 @ PPK
[ Time : 0.027s | 17 Queries | GZIP : Off ]

cron