img image001 image001 image001 image001 image001 image001 image001 image001 image001 image001 image001 image001 image001 image001 image001 image001

Planets Sun Sun Sun
Статистика раздачи
Автор: Снежана | Размер: 745.73 МБ | Добавлен: 16 окт 2018
Раздают: 19    Качают: 0
Скачать торрент
Скачать торрент
Описание торрента

СообщениеДобавлено: 16 окт 2018 

Страна: СССР
Производство: Ленфильм
Жанр: детский фильм, драма
Год выпуска: 1961
Продолжительность: 01:14:59
Перевод: Не требуется
Cубтитры: нет
Оригинальная аудиодорожка: русский
Режиссер: Николай Лебедев
В ролях:
Людмила Болтрик, Юрий Фисенко, Андрей Третьяков, Андрей Чернецов, Лара Несмачная, Кирилл Лавров, Татьяна Шамардина, Павел Усовниченко, Василий Меркурьев...
Об актёрах подробней
Описание:
Однажды августовским днем Федя наблюдал, как в их дом въезжали новые жильцы - мужчина и девочка. Девочка очень понравилась Феде - и мальчик стал искать повод, чтобы с ней подружиться. В этот день его отец, экскаваторщик, нашел клад с золотом и отдал его государству. Федя гордился отцом и быстро подружился с Надей. Но однажды, собираясь на охоту, мальчик обнаружил в отцовском сапоге золотые вещи. Федя рассказал все Наде. Ему было стыдно за отца...






Исходник: S-VHS
Качество видео: VHSRip
Формат видео: AVI
Видео: 720x304 (2,35:1), 25,000 кадров/сек, XviD ~ 1189 kbps avg, 0.217 bit/pixel
Аудио: 48 kHz, Dolby Digital AC3 2.0, 192 kbps
Раздача от:
Общее
Полное имя : Devchonka,s.kotoroy.ya.druzhil.1961.VHSRip_[New-team]_by_AVP_Studio.avi
Формат : AVI
Формат/Информация : Audio Video Interleave
Размер файла : 746 Мбайт
Продолжительность : 1 ч. 14 м.
Общий поток : 1391 Кбит/сек
Программа кодирования : VirtualDubMod 1.5.10.3 | www.virtualdub-fr.org || (build 2550/release)
Библиотека кодирования : VirtualDubMod build 2550/release
Видео
Идентификатор : 0
Формат : MPEG-4 Visual
Профиль формата : Advanced Simple@L5
Настройки формата : BVOP1 / Custom Matrix
Параметр BVOP формата : 1
Параметр QPel формата : Нет
Параметр GMC формата : Без точки перехода
Параметр матрицы формата : Выборочная
Идентификатор кодека : XVID
Идентификатор кодека/Подсказка : XviD
Продолжительность : 1 ч. 14 м.
Битрейт : 1189 Кбит/сек
Ширина : 720 пикселей
Высота : 304 пикселя
Соотношение сторон : 2,35:1
Частота кадров : 25,000 кадров/сек
Цветовое пространство : YUV
Субдискретизация насыщенности : 4:2:0
Битовая глубина : 8 бит
Тип развёртки : Прогрессивная
Метод сжатия : С потерями
Бит/(Пиксели*Кадры) : 0.217
Размер потока : 638 Мбайт (85%)
Библиотека кодирования : XviD 73
Аудио
Идентификатор : 1
Формат : AC-3
Формат/Информация : Audio Coding 3
Коммерческое название : Dolby Digital
Идентификатор кодека : 2000
Продолжительность : 1 ч. 14 м.
Вид битрейта : Постоянный
Битрейт : 192 Кбит/сек
Каналы : 2 канала
Channel layout : L R
Частота : 48,0 КГц
Частота кадров : 31,250 кадров/сек (1536 SPF)
Битовая глубина : 16 бит
Метод сжатия : С потерями
Размер потока : 103 Мбайт (14%)
Выравнивание : Разделение по промежуткам
Продолжительность промежутка : 40 мс. (1,00 видеокадр)
Время предзагрузки промежутка : 500 мс





   Похожие торренты   Торрент   Размер 
В этой теме нет новых непрочитанных сообщений. Девчонка, с которой я дружил (1961) VHSRip-AVC от New-Team

6 | 4

1.09 ГБ

В этой теме нет новых непрочитанных сообщений. Чужой бумажник (1961) VHSRip от New-Team

22 | 0

186.27 МБ

В этой теме нет новых непрочитанных сообщений. Чужой бумажник (1961) VHSRip-AVC от New-Team

56 | 3

185.84 МБ

В этой теме нет новых непрочитанных сообщений. Украинская рапсодия (1961) VHSRip

91 | 8

1.36 ГБ

В этой теме нет новых непрочитанных сообщений. Украинская рапсодия (1961) VHSRip >DVD5

13 | 2

4.35 ГБ

В этой теме нет новых непрочитанных сообщений. Дрянная девчонка / My Sassy Girl (2008) DVDRip-AVC от New-Team

255 | 33

744.14 МБ

В этой теме нет новых непрочитанных сообщений. Сказание о любви (Лейли и Меджнун) / Leyli və Məcnun (1961) VHSRip

25 | 10

1.78 ГБ




Вы не можете начинать темы
Вы не можете отвечать на сообщения
Вы не можете редактировать свои сообщения
Вы не можете удалять свои сообщения
Вы не можете добавлять вложения

Перейти:  
 Вход
ppkBB3cker v.2 © 2008-2014 @ PPK
[ Time : 0.030s | 18 Queries | GZIP : Off ]

cron