img image001 image001 image001 image001 image001 image001 image001 image001 image001 image001 image001 image001 image001 image001 image001 image001

Planets Sun Sun Sun
Статистика раздачи
Автор: Снежана | Размер: 1.09 ГБ | Добавлен: 16 окт 2018
Раздают: 10    Качают: 0
Скачать торрент
Скачать торрент
Описание торрента

СообщениеДобавлено: 16 окт 2018 

Страна: СССР
Год выпуска: 1962
Студия: Одесская киностудия
Жанр: драма, мелодрама, комедия, музыка
Продолжительность: 01:32:33
Перевод: не требуется
Оригинальная аудиодорожка: русский
Cубтитры: нет
Режиссер: Евгений Ташков
В ролях:
Екатерина Савинова, Анатолий Папанов, Юрий Горобец, Антонина Максимова, Надежда Животова, Александр Ширвиндт, Юрий Белов, Борис Бибиков...
Об актёрах подробней
Описание:
Простая и обаятельная девушка Фрося Бурлакова приезжает из сибирской деревушки в Москву поступать в консерваторию. У Фроси сильный и красивый голос, она подвижна и артистична, а потому ее заветная мечта должна непременно сбыться. Прием в консерваторию уже закончен, но Фрося не собирается опускать руки. Проведя в консерватории не один день, Фрося все же добивается, чтобы ее прослушал известный профессор...






Исходник: HDTV 1080i
Тип релиза: HDTVRip
Контейнер: AVI
Видео: 720x400 (16:9), 25,000 fps, XviD ~ 1293 kbps avg, 0.180 bit/pixel
Аудио: 48 kHz, Dolby Digital AC3 5.1 ch, 384.00 kbps
Раздача от:
Общее
Полное имя : Prihodite.zavtra...1962.BDRip_[New-team]_by_AVP_Studio.avi
Формат : AVI
Формат/Информация : Audio Video Interleave
Размер файла : 1,09 Гбайт
Продолжительность : 1 ч. 32 м.
Общий поток : 1687 Кбит/сек
Программа кодирования : VirtualDubMod 1.5.10.3 | www.virtualdub-fr.org || (build 2550/release)
Библиотека кодирования : VirtualDubMod build 2550/release
Видео
Идентификатор : 0
Формат : MPEG-4 Visual
Профиль формата : Advanced Simple@L5
Настройки формата : BVOP1 / Custom Matrix
Параметр BVOP формата : 1
Параметр QPel формата : Нет
Параметр GMC формата : Без точки перехода
Параметр матрицы формата : Выборочная
Идентификатор кодека : XVID
Идентификатор кодека/Подсказка : XviD
Продолжительность : 1 ч. 32 м.
Битрейт : 1293 Кбит/сек
Ширина : 720 пикселей
Высота : 400 пикселей
Соотношение сторон : 16:9
Частота кадров : 25,000 кадров/сек
Цветовое пространство : YUV
Субдискретизация насыщенности : 4:2:0
Битовая глубина : 8 бит
Тип развёртки : Прогрессивная
Метод сжатия : С потерями
Бит/(Пиксели*Кадры) : 0.180
Размер потока : 856 Мбайт (77%)
Библиотека кодирования : XviD 73
Аудио
Идентификатор : 1
Формат : AC-3
Формат/Информация : Audio Coding 3
Коммерческое название : Dolby Digital
Идентификатор кодека : 2000
Продолжительность : 1 ч. 32 м.
Вид битрейта : Постоянный
Битрейт : 384 Кбит/сек
Каналы : 6 каналов
Channel layout : L R C LFE Ls Rs
Частота : 48,0 КГц
Частота кадров : 31,250 кадров/сек (1536 SPF)
Битовая глубина : 16 бит
Метод сжатия : С потерями
Размер потока : 254 Мбайт (23%)
Выравнивание : Разделение по промежуткам
Продолжительность промежутка : 40 мс. (1,00 видеокадр)
Время предзагрузки промежутка : 500 мс





   Похожие торренты   Торрент   Размер 
В этой теме нет новых непрочитанных сообщений. Приходите завтра... (1962) HDTVRip-AVC от New-Team | Цветная версия

16 | 4

1.46 ГБ

В этой теме нет новых непрочитанных сообщений. Приходите завтра... (1962) HDTVRip 720p от New-Team | Цветная версия

28 | 0

2.91 ГБ

В этой теме нет новых непрочитанных сообщений. Приходите завтра... (1962) HDTVRip 1080p от New-Team | Цветная версия

18 | 1

4.89 ГБ

В этой теме нет новых непрочитанных сообщений. Сердце безрассудно / Dil Tera Deewana (1962) DVDRip | L1 | Цветная версия

12 | 7

2.16 ГБ

В этой теме нет новых непрочитанных сообщений. Волга-Волга (1938) HDTVRip-AVC от New-Team | Цветная версия

71 | 13

1.46 ГБ

В этой теме нет новых непрочитанных сообщений. Волга-Волга (1938) HDTVRip от New-Team | Цветная версия

19 | 11

745.11 МБ

В этой теме нет новых непрочитанных сообщений. Волга-Волга (1938) HDTVRip от New-Team | Цветная версия

76 | 27

1.46 ГБ




Вы не можете начинать темы
Вы не можете отвечать на сообщения
Вы не можете редактировать свои сообщения
Вы не можете удалять свои сообщения
Вы не можете добавлять вложения

Перейти:  
 Вход
ppkBB3cker v.2 © 2008-2014 @ PPK
[ Time : 0.023s | 16 Queries | GZIP : Off ]

cron