img image001 image001 image001 image001 image001 image001 image001 image001 image001 image001 image001 image001 image001 image001 image001 image001

Planets Sun Sun Sun
Статистика раздачи
Автор: Снежана | Размер: 3.21 ГБ | Добавлен: 16 окт 2018
Раздают: 994    Качают: 8
Скачать торрент
Скачать торрент
Описание торрента

СообщениеДобавлено: 16 окт 2018 

Информация о фильме
Название: Временные трудности
Год выхода: 2017
Жанр: Драма, Мелодрама
Режиссер: Михаил Расходников
Продюсер: Георгий Малков, Владимир Поляков, Михаил Кучмент
Актеры: Иван Охлобыстин, Риналь Мухаметов, Виктория Соловьёва, Ян Цапник, Илья Рязанов, Ирина Пегова, Ирина Маликова, Николай Ковбас
Описание:
У Саши Ковалёва была врожденная болезнь. Отец мальчика выбрал, как ему казалось, единственно правильный способ поставить сына на ноги — относиться к нему как к здоровому человеку. «Ты не больной — у тебя временные трудности». Поесть, одеться, спуститься и подняться по лестнице подъезда — каждый день у ребенка уходили часы на то, чтобы справиться с простыми бытовыми задачами. В школе — издевательства сверстников. И помощи ждать было не от кого. Мальчик справился с болезнью, но возненавидел отца. Окончив школу, Саша уехал из дома и прекратил всякое общение с отцом. За 15 лет он стал лучшим бизнес-консультантом страны, который вывел из кризиса сотни бизнесов. «У вас не кризис — у вас временные трудности» — говорил своим клиентам прошедший тяжелый путь становления Александр. Но однажды новый заказ дает ему неожиданную возможность поквитаться с отцом.

Возраст: 12+ (зрителям, достигшим 12 лет)
Дата российской премьеры: 13 сентября 2018, «Централ Партнершип»
Производство: Россия, Enjoy Movies
Продолжительность: 01:23:25
Перевод: Не требуется (русский) Лицензия
Субтитры: Отсутствуют
Качество видео: WEB-DL 1080p
Видео: AVC/H.264, 1920x800 (2.40:1), 5007 kbps
Аудио: АС3, 6 ch, 48 kHz, 384 Kbps | Русский
Общее
Уникальный идентификатор : 251725871436561483012114940618121704708 (0xBD60A3ACF1A39EBD817E831BAAF87504)
Полное имя : D:Временные.трудности.2017.WEB-DL.[1080p].NNMClub.mkv
Формат : Matroska
Версия формата : Version 2
Размер файла : 3,21 Гбайт
Продолжительность : 1 ч. 23 м.
Общий поток : 5501 Кбит/сек
Название фильма : Временные.трудности.2017.WEB-DL.[1080p].NNMClub
Дата кодирования : UTC 2018-10-13 10:16:31
Программа кодирования : mkvmerge v8.3.0 ('Over the Horizon') 64bit
Библиотека кодирования : libebml v1.3.1 + libmatroska v1.4.2
Видео
Идентификатор : 1
Формат : AVC
Формат/Информация : Advanced Video Codec
Профиль формата : High@L4
Настройки формата : CABAC / 4 Ref Frames
Параметр CABAC формата : Да
Параметр RefFrames формата : 4 кадра
Идентификатор кодека : V_MPEG4/ISO/AVC
Продолжительность : 1 ч. 23 м.
Битрейт : 5007 Кбит/сек
Ширина : 1920 пикселей
Высота : 800 пикселей
Соотношение сторон : 2,40:1
Режим частоты кадров : Постоянный
Частота кадров : 24,000 кадра/сек
Цветовое пространство : YUV
Субдискретизация насыщенности : 4:2:0
Битовая глубина : 8 бит
Тип развёртки : Прогрессивная
Бит/(Пиксели*Кадры) : 0.136
Размер потока : 2,92 Гбайт (91%)
Язык : Russian
Default : Да
Forced : Нет
Аудио
Идентификатор : 2
Формат : AC-3
Формат/Информация : Audio Coding 3
Коммерческое название : Dolby Digital
Идентификатор кодека : A_AC3
Продолжительность : 1 ч. 23 м.
Вид битрейта : Постоянный
Битрейт : 384 Кбит/сек
Каналы : 6 каналов
Channel layout : L R C LFE Ls Rs
Частота : 48,0 КГц
Частота кадров : 31,250 кадров/сек (1536 SPF)
Битовая глубина : 16 бит
Метод сжатия : С потерями
Размер потока : 229 Мбайт (7%)
Язык : Russian
ServiceKind : Complete Main
Default : Да
Forced : Нет



   Похожие торренты   Торрент   Размер 
В этой теме нет новых непрочитанных сообщений. Временные трудности (2017) WEB-DLRip | КПК

92 | 0

307.64 МБ

В этой теме нет новых непрочитанных сообщений. Временные трудности (2017) WEB-DLRip

539 | 2

1.37 ГБ

В этой теме нет новых непрочитанных сообщений. Временные трудности (2017) WEB-DLRip от MegaPeer

50 | 0

744.5 МБ

В этой теме нет новых непрочитанных сообщений. Временные трудности (2017) WEB-DLRip от GeneralFilm

308 | 1

1.46 ГБ

В этой теме нет новых непрочитанных сообщений. Временные трудности (2017) WEB-DLRip от GeneralFilm

128 | 6

744.69 МБ

В этой теме нет новых непрочитанных сообщений. Временные трудности (2018) WEB-DLRip от Scarabey

883 | 18

1.39 ГБ

В этой теме нет новых непрочитанных сообщений. Трудности перевода / Lost in Translation (2003), BDRip 1080p

4 | 2

13.71 ГБ




Вы не можете начинать темы
Вы не можете отвечать на сообщения
Вы не можете редактировать свои сообщения
Вы не можете удалять свои сообщения
Вы не можете добавлять вложения

Перейти:  
 Вход
ppkBB3cker v.2 © 2008-2014 @ PPK
[ Time : 0.023s | 15 Queries | GZIP : Off ]

cron